&title=Scars of FAUNA [DX]
&artist=猫叉Master「jubeat」より
&first=0
&des=maya
&lv_5=13+
&inote_5=(165){1},
{16}7h[16:3],,,5h[16:3],,,4h[8:1],,2,,,,
{16}2h[16:3],,,4h[16:5],,,{24}E1,B1,B2,{4}E3,
{16}8h[16:3],,,6h[16:3],,,4h[8:1],,2,,,,
{16}1h[16:3],,,3h[16:5],,,{24}E8,B8,B1,{4}E2,
{16}2h[16:3],,,8h[16:5],,,1,2,3,,,,
{16}7h[16:3],,,1h[16:5],,,{24}E1,B8,B7,{16}E7,,1,8,
{16}1h[16:3],,,3h[16:3],,,5h[8:1],,{24}7,,,1,8,1,
{16}8h[16:3],,,6h[16:5],,,{24}E2,B1,B8,{4}E8,
{16}1b/2h[16:3],,,4h[16:3],,,5h[8:1],,7,,,,
{16}7h[16:3],,,5h[16:5],,,{24}E1,B8,B7,{4}E7,
{16}1h[16:3],,,3h[16:3],,,5h[8:1],,7,,,,
{16}8h[16:3],,,6h[16:5],,,{24}E2,B1,B8,{4}E8,
{16}7h[16:3]/5b,,,2h[16:5],,,8,7,6,,,,
{16}2h[16:3],,,7h[16:5],,,{24}E1,B1,B2,{16}E3,,8,1,
{16}8h[16:3],,,4h[16:3],,,5,4,6,,1,8,
{16}2,,3,4x/3x,,6,6x/5x,,8xz4[8:1]b/1xs5[8:1]b,,,,
{4}8xb>8[4:10]/1xb<1[4:10],,,
{4},,,
{4},,,
{4},,,
{8}8h[4:2]/1,,,,2q6[4:1],4,
{8}6qq1[8:5],,,7h[8:3],,,
{16},,,,,,7,6,5<1[4:1],,,,
{4}1>5[4:1],5,{16}2h[4:1],,7,8,
{8}1b-6-2[8:3],,,2-6-3[8:3],,,
{8}3-6-4[8:3],,,2-7-3[8:3],,,
{8}3-7-4[8:3],,,4-7-5[8:3],,,
{4}8-2-4-6[8:2],,,
{16}7/8,,,5/6,,,4/3,,1x/2x,,,,
{16}3/4,,,1/2,,,8/7,,5x/6x,,,,
{16}8/1,,,7/6,,,5/4,,3x/2x,,,,
{16}1/2,8,7,6,1,2,3,4,8,7,6,5,
{16}4/3bh[16:3],,,1,3-8[8:1],,4,,5/3,,,,
{16}6h[16:3],,,8,6^1[8:1],,{24}E3,B3,B4,{4}6/E5,
{16}2h[16:3],,,4,2-5[8:1],,1,,8/2,,,,
{16}7h[16:3],,,5,7^4[7:1],,{24}E3,B2,B1,{4}7/E1,
{16}8/2h[16:3],,,1,2h[16:2],,4,,5x/3x,,,,
{16}4/6h[16:3],,,5,6h[16:2],,8,,1x/7x,,,,
{16}8x/1x,,6,5,7x,,3,4,2x,,8,1,
{16}7/1,,5,5/4,,7/2,7/2,,{24}1,8,1,8,1s5[24:8],8z4[24:7]b,
{4},,,
{4}7/1^6[8:1],1-4[8:1]/3,{16}8/1,,7,6,
{16}5h[8:1],,8,,{24}E1,B1,B2,{8}E3,4h[8:1],2,
{4}2/8^3[8:1],8-5[8:1]/6,{16}1/8,,2,3,
{16}4h[8:1],,1,,{24}E1,B8,B7,{16}E7,,1,2,3,4,
{4}7/5^8[8:1],5-2[8:1]/3,{16}6/5,,8,7,
{16}6h[8:1],,1,,{24}E2,B2,B3,{8}E4,5h[8:1],3,
{4}2/4^1[8:1],4-7[8:1]/6,{16}3/4,,1,2,
{16}3h[8:1],,8,,{24}E8,B7,B6,{8}E6,,1,
{4}1<2[8:15],E2,E3,
{4}E4,E5,E6,
{4}E7,E8,{16}E1,,1,8,
{8}7h[8:3],6,5,4V28[4:1],,8,
{4}8>7[8:15],E8,E7,
{4}E6,E5,E4,
{4}E3,E2,{16}E1,,8,1,
{8}2h[8:2],3v8[8:1],4,5,,,
{4}7h[4:1]/1-5[8:1],1^4[8:1],7q3[8:1]/1,
{8}7x/4z8-2[4:2]b,,5,6,7,7h[8:1],
{4},6/2^5[8:1],8-5[8:1]/2,
{8}8x-3-6-1[8:3]b/1h[4:1],,,2,2h[4:1],,
{4},7^2[8:1],7/3p6[8:1],
{4}5p4>6[8:5]b/3x,,C,
{8}A4h[4:1]/E4f/A3h[4:2],,,,,{24}8q2[8:3],7,6,
{8}5h[4:1],8,,C,,,
{4}3^8[8:1],7p4[8:3]/3,7h[4:1],
{8},,8,7/1,6xv3[8:1]/2xv5[8:1]b,5/3,
{4},6^1[8:1],2p5[16:3]/6,2h[4:1],
{24},,,5,6,7,{4}8xqq6[8:1]b/3xqq1[8:1],,
{4}4h[8:1]/2h[8:1],5h[8:1]/4h[8:1],7h[4:2]/5,
{8}8,1,2,6/3,5pp8[4:1]b/4qq1[4:1]b,,,,
{24},,,,7/2,6/3,{4}5h[4:2]/4,A7/D8/E8,E2/D2/A2,
{8}8-4[8:1]/3,7,8/2-6-3[4:1],1,5b/2b,,
{8}7-4[8:1],6,7/3-5p8[4:1],1,6b/3b,,
{24}7h[4:1],,,8,1,2,{8}3h[4:2],1V74[4:1]b,5,1,
{8},,,6h[4:1],,2h[8:1],
{8}8-5[8:1],7,8/4v1-3[4:1],2,6b/4b,,
{8}7^2[8:1],,6,5^8[8:1],,4,
{8}3<1[4:1]b,,,,5x,6x,
{4}7xh[8:3]/2xh[8:3],,8b/1b,
{8}8/2v5[8:1],3,6p2^7[4:1]/2,7,6b/4b,,
{8}3v8[8:1],2,7^5q1[4:1]/3,5,7b/1b,,
{24}2h[4:1],,,1,8,7,{8}6h[4:2],8-2pp4[4:1]b,4,8,
{8},,,3h[4:1],,7h[8:1],
{8}1-5[8:1],2,1/6-3p7[4:1],8,6b/4b,,
{8}2^5[8:1],,1,8^3[8:1],,7,
{4}6<4[4:1]b,,1x^6[8:1],
{4}1b/2p5[8:1],2b/3q8[8:1],3b/4^7[8:1],
{4}4b>6-8-2-4[4:4]b/1h[4:5],,,
{8},,,,,5/1,
{4}6h[4:2]/2q6q2[8:3],,,
{4}3h[4:2]/7V53V17[8:3],,,
{16}8/2,,,6/4,,,5/3,,7b/1b,,,,
{16}4/7,,,2/5,,,1/6,,3b/8b,,,,
{16}8/4,,,6/2,,,7/3,,5b/1b,,,,
{16}8/7,1,2,3,8,7,6,5,1,2,3,4,
{16}6h[4:5]/5,,,E8,,,E4,,E2,,,,
{16}D8/A8,,,D5/A4,,,{24}8,1,2,{4}3h[4:6],
{16}A2,,,A4,,,A8,,A6,,,,
{16}B1/B2,,,B6/B5,,,{24}4,5,6,{4}7,
{16}8/1h[16:3],,,3,1h[16:2],,5,,7/2,,,,
{16}4/5h[16:3],,,7,5h[16:2],,{24}8,1,2,{4}6/3,
{16}8b/1b,,7,5,6b,,2,4,3b,,7,1,
{16}8/1,,,6/3,,,{32}4,3,2,1,8,7,6,5,4,3,2,1,
{16}7/8,,,6/5,,,4/3,,1/2,,,,
{16}8b/1b,,,6b/3b,,,5b/4b,,7b/2b,,,,
