&title=Essence
&artist=takehirotei vs. HowToPlayLN
&first=0.09
&des=KaiSai vs. SCP2950
&lv_6=15
&inote_1=(195)
&inote_6=(195){4}5/4h[1:4],,,,,,,,,,,,,,,,{1}6<3[1:2],
,5-1[1:1],
7-3[1:1],
1h[1:3],
,,5-8[1:1],
4<2[1:2],
,5h[1:1],
{2}4h[2:1],{16}3,2,1,8,7,6,5,4,
{2}3/1h[2:1],5h[1:1],
,2,
{1}2h[2:3],
{2},8,
{1}8<3[2:3],
1h[1:1],
{2}7h[2:1],5h[2:1],
4h[2:1],2h[2:1],
{1}8<3[1:2],
{2}1,2,
{1}3q8[1:1],
{2}2,3,
{1}4q5[2:3],
{2}7,8,
1p8[1:1],4,
3h[2:1],{16}7,6,5,4,3,2,1,8,
7/1,,,5/6,,,{8}2/4,{16}3/8,,,5/7,,,{8}2/4,
{16}1/8,,,4/7,,,{8}1/5,{16}1/5,8,7,6,5,4,3,2,
1/7,,,2/3,,,{8}4/6,{16}2/8,,,3/4,,,{8}5/7,
{4}1/8h[4:1],{8}2h[8:1],4h[8:1],{16}2,2,4,4,5,5,7,7,
{8}2,{16}2,1,,1,{8}3/8,7,{16}7,8,,8,{8}1/6,
2,2h[8:1],6,6h[8:1],{16}1,1,3,3,5,5,7,7,
1,,,8/4,,,{8}2/6,{16}5,,,4/8,,,{8}2/6,
{16}1,1,1,1,{8}1,2/8,{16}2,3,4/8,7,6/1,2,3/7,6,
(202){8}5/1,1h[8:1],3,3h[8:1],5,5h[8:1],7,7h[400:49],
(210)2,2h[8:1],4,4h[8:1],5,5h[8:1],7,7h[400:49],
(217)3,3h[8:1],1,1h[8:1],8,8h[8:1],6,6h[400:49],
(225)2,2h[8:1],5,5h[8:1],4,4h[8:1],8,8h[400:49],
(232)2,2,5,5,8,{16}8,1,{8}2/6,6,
(240)2,{16}2,3,{8}4/8,{16}8,7,{8}6/4,4,{16}4,3,2,1,
(247){8}8/5,5,{16}2/5,6,7,8,2,3,4,5,1,8,7,6,
(255){8}3,3,4,4,5,5,6,6,
(258)3,5,4,6,,,4,4,
,6,,3,,5,5,4,
,3,5,4,,,{4}5h[4:1],
1b,{8}8,8,2,2,6,6,
2-4[8:1],2,7-5[8:1],7,1-3[8:1],1,6-4[8:1],6,
2-4[8:1],2,8-6[8:1],8,2-8[8:1],2,7-5[8:1],7,
2<7[8:1],2,3,4,5>2[8:1],5,6,7,
8<5[8:1],8,1,2,3>8[8:1],3,4,5,
6-8[8:1],6,4-2[8:1],4,5-7[8:1],5,3-1[8:1],3,
6-8[8:1],6,4-2[8:1],4,7-1[8:1],7,3-5[8:1],3,
8>3[8:1],8,7,6,5<8[8:1],5,4,3,
2>5[8:1],2,1,8,7>2[8:1],7,6,5,
4-1[8:1],4,{4}4/7b-5[8:1],7/2b-4[8:1],2/8b-5[8:1],
8/1b-4[8:1],1/6b-3[8:1],6/2b-7[8:1],{8}5b,5b,
,2b,{4}2b-5[8:1],2/7b-4[8:1],7/3b-8[8:1],
6b-1[8:1],4b/6,{16}2,4,{8}2,{16}7,5,{8}7,
{4}1b-5[8:1],1/8b-4[8:1],8/2b-6[8:1],2/5b-8[8:1],
5/4b-1[8:1],4/7b,{8}2b,2b,{16}3b,4b,6b,5b,
{8}1b,1b,2b,2b,5b,5b,6b,6b,
{16}1b/7b,,,2b/5b,,,{8}3b/7b,{16}1b/2b,,,4b/5b,,,{8}7b/8b,
{2}1/7b>5[4:1],{8}1h,1h,1h,1h,
{16}3,4,5,6,1,2,3,4,8,7,6,5,1,8,7,6,
{8}8h,8h,2h,2h,6h,{16}3h,4h,{8}2h,2h,
{4}7h[4:1],{16}1h,8h,1h,8h,2,3,4,5,1,2,3,4,
{8}1,1h[4:1],{16},,7,6,1,8,7,6,5,4,3,2,
7,6,5,4,8,1,2,3,1,2,3,4,2,3,4,5,
{4}8h[4:1],{8}1h,1h,1h,1h,{16}7h,5h,,2h,
{4}4h,{8}7,7h[4:1],{16}2h,3h,{8}4h,6,6,
2,2,2h[8:1],{16}8,7,2,3,4,5,6,7,8,1,
7,6,5,4,8,7,6,5,7,6,5,4,3,2,1,8,
{8}2h,2h,6h,6h,{16}8,7,6,5,8,7,6,5,
{8}1h,1h,5h,5h,{16}1,2,3,4,1,2,3,4,
{8}1h,1h[4:1],{16},,6,5,2,3,4,5,6,7,8,1,
7,6,5,4,1,2,3,4,2,3,4,5,8,7,6,5,
{8}8b,8b,{16}2,3,4/7,6,{8}5/1b,1b,{16}2,3,4/7,6,
{8}5/1b,1b,{24}2,3,4,{96}8,,,7,,,{32}6,5,{8}4/1b,1b,{24}2,3,4,{96}8,,,7,,,{32}6,5,
{1}4/1b>1[0.2326##1.8805],
,(247)1b>1[0.2405##1.9647],
,(236)1b>1[0.2517##2.0569],
,(225)1b>1[0.2667##2.161],
,(214)3h[1:1],
{8}6,{16}3,4,{8}3,6,{16}3,4,3,4,{8}3,{16}6,5,
{4}7/4,7/4h[4:3],{16},,,,,,,,7,
8,7,8,7,8,6,1,7,8,6,1,7,8,6,1,
{8}7,7,,1/6h[8:5],{16},,,,,,,,2,
1,2,1,3,8,3,8,2,1,2,1,3,8,3,8,
{8}4,{16}4,5,{4}6/3h[4:3],{8},,,,8,
1/7,2/6,3/5,{16}4,3,2,1,5,6,7,8,
3,4,{8}3,7,{16}3,4,{8}3,7,{16}3,4,3,4,
3,4,{8}2,8,{16}6,5,{8}6,7,{16}2,6,2,6,
2,3,4,5,8,7,6,5,1,2,3,4,8,7,6,5,
1,8,1,8,{24}2,7,2,7,2,7,3,6,3,6,3,6,4,5,4,5,4,5,
{16}3,4,{8}3,2,{16}6,5,{8}6,7,{16}3,4,3,4,
3,4,{8}2,8,{16}3,4,{8}3,8,{16}2,1,2,1,
2,3,4,5,8,7,6,5,{24}1,2,3,7,6,5,8,7,6,2,3,4,
{16}1,5,2,6,3,7,4,8,5,1,4,8,3,7,2,6,
2,5,{8}2,7,{16}2,5,{8}2,7,{16}2,5,3,6,
4,7,{8}4,3,{16}4,5,3,6,2,7,1,8,1,8,
1,2,3,4,7,6,5,4,2,3,4,5,8,7,6,5,
1,8,1,8,{20}1,2,3,4,5,1,8,7,6,5,7,8,1,2,3,
{8}4/5,4/5h[4:1],,1,,3/7,{4}3/7,
2/6,{8}2/6,4/8,,3/7,,1/7,
{4}1/7,2/6,{8}1/7,3/5,,2/6,
,2/6,{4}4/8,4/8,{8}2/6,1/5,
,1/5,,1/5,{4}3/7,2/8,
{8}2/8,4/6,,3/7,,3b/7b,{4}1b/5b,
{8}2b/6b,4b/8b,,3b/7b,{4}1b/5b,{8}2b/6b,4b/8b,
,3b/5b,{4}1b/7b,{8}4b/6b,2b/8b,,1b/8b,
{4}2b-5[8:1]/6b-1[8:1],2/6,{8}4/8,2/6,,1-4[8:1]/8-5[8:1],
,1/8,,3/6,{4}1/8,{8}4/5,{16}1,8,
2,7,3,6,4,5,4,5,3,4,2,6,1,7,1,7,
2,8,3,7,4,6,4,6,{4}3b,1b/5b,
{8}2b/6b,4b/8b,,3b-8[8:1]/7b-4[8:1],,3b/7b,,1b/5b,
{4}3b/7b,{8}4/5,{16}6,3,5,4,8,1,7,2,6,3,
5,4,6,5,7,3,8,2,7,1,6,2,5,3,6,4,
{4}7b,1b/5b,{8}2b/6b,4b/8b,,4b-1[8:1]/5b-8[8:1],
,4b/5b,,2b/7b,{4}4b/5b,{8}1b/8b,{16}4,5,
3,6,2,7,1,8,2,7,3,6,4,5,2,8,3,7,
4,6,1,7,2,6,3,5,{4}4b,2b/6b,
{8}1b/5b,3b/7b,,1b>4[8:1]/8b<5[8:1],,1b/8b,,1b/8b,
{4}3b/6b,{8}1b/8b,{16}2,7,3,6,4,5,4,5,3,6,
2,7,1,8,2,1,3,8,4,5,8,7,1,6,4,5,
{8}1,{16}1,8,{20}2,7,2,7,2,6,3,6,3,6,4,{40}5,,,3,{160},,,,,,{32}6,2,
{12}7,{24}1,8,{48},{16}1,{20}2/7,,3/6,,4/5,,3/6,,2/7,{40},,{8}1/8,{16}7,6,
1,2,3,4,8,7,6,5,1,2,3,4,8,1,8,1,
7,2,7,2,6,3,6,3,{8}5,{16}4,5,{8}4,{32}6,3,7,2,
1,8,2,7,{16}3,6,4,5,4,5,{20}4,6,3,6,3,{1920}7,{64},,{160},{1920}2,{64},,{160},{960}8,{64},,{240},{80}1,{320},7,{64},,{960},,,,,,,2,{64},,{320},,,{960}6,{64},,{320},,,3,
{64},,{480},5,{64},,{320},{960}4,{64},,,{240},{320}5,,,,,,,,,,,,,,,,,,,,4,,,,,,,,,,,,,,,,,,,,5,{16},{64},,,{80},{320}3,,,,,,,,,,,,,,,,,,,,2,,,,,,,,,,,,,,,,,,,,5,,,,,,,,,,,,,,,,,,,,6,,,,,,,,,,,,,,,,,,,,7,,,,,,,,,,,,,,,,,,,,8,,,,,,,,,,,,,,,,,,,,4,,,,,,,,,,,,,,,,,,,,3,,,,,,,,,,,,,,,,,,,,2,,,,,,,,,,,,,,,,,,,,1,,,,,,,,,,,,,,,,,,,,6,
,,,,,,,,,,,,,,,,,,,7,,,,,,,,,,,,,,,,,,,,8,,,,,,,,,,,,,,,,,,,,1,,,,,,,,,,,,,,,,,,,,4,,,,,,,,,,,,,,,,,,,,5,,,,,,,,,,,,,,,,,,,,4,,,,,,,,,,,,,,,,,,,,5,,,,,,,,,,,,,,,,,,,,3,,,,,,,,,,,,,,,,,,,,6,,,,,,,,,,,,,,,,,,,,3,,,,,,,,,,,,,,,,,,,,6,,,,,,,,,,,,,,,,,,,,2,,,,,,,,,,,,,,,,,,,,7,,,,,,,,,,,,,,,,,,,,2,,,,,,,,,,,,,,,,,,,,7,,,,,,,,,,,,,,,,,,,,1,
{16},{64},,,{80},{320}8,,,,,,,,,,,,,,,,,,,,1,,,,,,,,,,,,,,,,,,,,8,{16},{64},,,{80},{320}2,{64},,{960},,,,,,,7,{64},,{320},,,{960}3,{64},,{320},,,6,{64},,{480},4,{64},,{320},{960}5,{64},,{240},{80}3,{320},6,,,,,,,,,,,,,,,,,,,,2,,,,,,,,,,,,,,,,,,,,7,,,,,,,,,,,,,,,,1,{16},{64},,{320},8,,,,,,,,,,,,,,,,{64}1,{320},,,,,,,,,,,8,
{16},{64},{80},{320}2,,,,,,,,,,3,,,,,,,,,,4,,,,,,,,,,8,,,,,,,,,,7,,,,,,,,,,6,{16},{64},{80},{320}3,,,,,,,,,,2,,,,,,,,,,1,,,,,,,,,,5,,,,,,,,,,6,,,,,,,,,,7,{16},{64},{480},{960}1,{16},{64},{240},{960}8,{16},{64},{240},{320}1,{16},{64},,,{80},{320}7,,,,,,,,,,,,,,,,,,,,6,,,,,,,,,,,,,,,,,,,,2,
,,,,,,,,,,,,,,,,,,,3,,,,,,,,,,,,,,,,,,,,4,,,,,,,,,,,,,,,,,,,,5,,,,,,,,,,,,,,,,,,,,8,,,,,,,,,,,,,,,,,,,,7,,,,,,,,,,,,,,,,,,,,6,,,,,,,,,,,,,,,,,,,,5,,,,,,,,,,,,,,,,,,,,1,,,,,,,,,,,,,,,,,,,,2,,,,,,,,,,,,,,,,,,,,3,,,,,,,,,,,,,,,,,,,,4,,,,,,,,,,,,,,,,,,,,8,,,,,,,,,,,,,,,,,,,,4,,,,,,,,,,,,,,,,,,,,8,,,,,,,,,,,,,,,,,,,,4,,,,,,,,,,,,,,,,,,,,7,
,,,,,,,,,,,,,,,,,,,3,,,,,,,,,,,,,,,,,,,,7,,,,,,,,,,,,,,,,,,,,3,,,,,,,,,,,,,,,,,,,,6,,,,,,,,,,,,,,,,,,,,2,,,,,,,,,,,,,,,,,,,,6,,,,,,,,,,,,,,,,,,,,2,,,,,,,,,,,,,,,,,,,,5,{16},{64},,,{80},{320}4,{64},,{960},,,,,,,5,{64},,{320},,,{960}4,{64},,{320},,,6,,,,,,,,,,,,,,,,3,,,,,,,,,,,,,,,,6,,,,,,,,,,,,,,,,3,,,,,,,,,,,,,,,,{64}6,{16},,{64},,,{960},,,,,,,,,,,,,{240}7,
{64},,{960},,,,,,,,,,,2,{64},,,{240},{320}7,{64},,,{480},{960}2,{64},,{480},,,,,,,7,{64},{120},{320}2,{16},{64},,,{80},{320}1,,,,,,,,,,,,,,,,,,,,8,,,,,,,,,,,,,,,,,,,,1,{16},{960},,,,,,,7,{16},{64},,{320},,,{960}2,{16},{320},,,6,{16},{64},,,{80},{320}3,
{16},{64},,,{80},{320}5,,,,,,,,,,,,,,,,,,,,4,,,,,,,,,,,,,,,,,,,,5,,,,,,,,,,,,,,,,,,,,2,,,,,
,,,,,,,,,,,,,,,6,,,,,,,,,,,,,,,,,,,,3,,,,,,,,,,,,,,,,,,,,7,,,,,,,,,,,,,,,,,,,,4,,,,,,,,,,,,,,,,,,,,8,,,,,,,,,,,,,,,,,,,,5,,,,,,,,,,,,,,,,,,,,1,,,,,,,,,,,,,,,,,,,,4,,,,,,,,,,,,,,,,,,,,8,,,,,,,,,,,,,,,,,,,,3,,,,,,,,,,,,,,,,,,,,7,
,,,,,,,,,,,,,,,,,,,2,,,,,,,,,,,,,,,,,,,,6,,,,,,,,,,,,,,,,,,,,1,,,,,,,,,,,,,,,,,,,,5,,,,,,,,,,,,,,,,,,,,8,,,,,,,,,,,,,,,,,,,,4,,,,,,,,,,,,,,,,,,,,1,,,,,,,,,,,,,,,,,,,,5,,,,,,,,,,,,,,,,,,,,2,,,,,,,,,,,,,,,,,,,,6,,,,,,,,,,,,,,,,,,,,3,,,,,,,,,,,,,,,,,,,,7,,,,,,,,,,,,,,,,,,,,4,,,,,,,,,,,,,,,,,,,,8,{16},{64},,,{80},{320}2,
{4},{16},,,{64},,,{80},{320}7h[2:1],{4},{16},,,{64},,,{80},{320}6h[2:1],
{4},{16},,,{64},,,{80},{320}5h[2:1],{4},{16},
,,{64},,,{80},{320}4p1[1:1],
{4},,{16},,,{64},,,{80},{320}7,{16},{64},,,{80},{320}6,{16},{64},,,{80},{320}5h[2:1],
{4},{16},,,{64},,,{80},{320}2,{4},{16},,,{64},,,{80},{320}2h[4:3],
{4},,{16},,,{64},,,{80},{320}8p5[1:1],{4},{16},,,{64},,,{80},{320}4,
{16},,,{64},,,{80},{320}3,{16},,,{64},,,{80},{320}2,{16},,,{64},,,{80},{320}2h[4:3],
{4},,{16},,,{64},,,{80},{320}8,{16},{64},,,{80},{320}7,{16},{64},,,{80},{320}6,
{4},{16},,,{64},,,{80},{320}5pp1[1:1],{4},{16},,,{64},,,{80},{320}3,
{4},{16},,,{64},,,{80},{320}2,{16},,,{64},,,{80},{320}3,{16},,,{64},,,{80},{320}4,
{4},{16},,,{64},,,{80},{320}4h[2:1],{4},{16},,,{64},,,{80},{320}7,
{4},{16},,,{64},,,{80},{320}7h[4:1],{16},,,{64},,,{80},{320}6h[4:1],{16},,,{64},,,{80},{320}5h[2:1],
{4},{16},,,{64},,,{80},{320}4h[2:1],{4},{16},,,{64},,,{80},{320}5-8[1:1],
{4},,,{16},,,{64},,,{80},{320}1h[#2.242996],
{4},,,{16},,,{64},,,{80},{320}8bh[400:399],
{4},,,{16},,,{64},,,{80},(107){320},
{16},{64},,,{80},{320}5,{16},{64},,,{80},{320}4,{16},{64},,,{80},{320}6h[8:1],{16},{64},,,{80},{320}C,{16},{64},,,{80},{320}B8,{16},{64},,,{80},{320}B6,{16},{64},,,{80},{320}4h[8:1],{16},{64},,,{80},{320}E8,
{16},{64},,,{80},{320}E3,{16},{64},,,{80},{320}E6,{16},,,{64},,,{80},{320}6/E2,{16},{64},,,{80},{320}B2,,,,,,,,,,,,,,,,,,,,6,,,,,,,,,,,,,,,,,,,,B3,{16},{64},,,{80},{320}4,{16},{64},,,{80},{320}4h[4:1]/E7,
{16},{64},,,{80},{320}B7,{16},{64},,,{80},{320}B8,{16},{64},,,{80},{320}6h[8:1],{16},{64},,,{80},{320}E2,{16},{64},,,{80},{320}B7,,,,,,,,,,,,,,,,,,,,2,,,,,,,,,,,,,,,,,,,,B6,{16},{64},,,{80},{320}3h[8:1],{16},{64},,,{80},{320}C,
{16},{64},,,{80},{320}2,{16},{64},,,{80},{320}1>4[8:1],{16},{64},,,{80},{320}7,{16},{64},,,{80},{320}1<6[8:1],{16},,,{64},,,{80},{320}1w5[8:1],{16},,,{64},,,{80},{320}1,
{16},,,{64},,,{80},{320}5,{16},{64},,,{80},{320}6,{16},{64},,,{80},{320}1-4[8:1],{16},,{64},,,{80},{320}7,{16},,{64},,,{80},{320}6,{16},{64},,,{80},{320}5-1[8:1],
{16},,,{64},,,{80},{320}5-7[8:1],{16},{64},,,{80},{320}2,{16},{64},,,{80},{320}5w1b[8:1],{16},{64},,,{80},{320}1w5b[8:1],{16},{64},,,{80},{320}5,{4},{16},,,{64},,,{80},{320}6,
{16},{64},,,{80},{320}4,{16},{64},,,{80},{320}3,{16},{64},,,{80},{320}5,{16},{64},,,{80},{320}6,{16},{64},,,{80},{320}6,{16},{64},,,{80},{320}4,
{16},,,{64},,,{80},{320}6,{16},{64},,,{80},{320}3,{16},{64},,,{80},{320}C/B6/E7/B5,{16},,,{64},,,{80},{320}C/B8/B1/B2,{16},,,{64},,,{80},(214){320}E4/B4/B3/Cfh[2:1],
{4},,,{16},,,{64},,,{80},{320}4/6h[4:1],
{16},,,{64},,,{80},{320}3-7[8:1],{16},{64},,,{80},{320}3,{4},{16},{64},,,{80},{320}6/8,{16},{64},,,{80},{320}1,{16},{64},,,{80},{320}2h[4:1],
{16},,,{64},,,{80},{320}1-5[8:1],{16},{64},,,{80},{320}1,{4},{16},{64},,,{80},{320}6/3-1-7-1-3[4:3],{16},,,{64},,,{80},{320}5,
{16},,,{64},,,{80},{320}4,{16},{64},,,{80},{320}4,{4},{16},{64},,,{80},{320}5,{16},,,{64},,,{80},{320}6b,
{16},,,{64},,,{80},{320}3-8-4-1[4:3],{16},,,{64},,,{80},{320}3,{16},,,{64},,,{80},{320}6,{16},,,{64},,,{80},{320}6,
{16},,,{64},,,{80},{320}5-3-7-4[2:1],{16},,,{64},,,{80},{320}1,{16},{64},,,{80},{320}1,{16},,,{64},,,{80},{320}2,{16},,,{64},,,{80},{320}3,
{16},{64},,,{80},{320}3,{16},{64},,,{80},{320}4,{16},{64},,,{80},{320}4,{16},{64},,,{80},{320}5,{16},{64},,,{80},{320}5,{16},{64},,,{80},{320}6,{16},{64},,,{80},{320}6-1-3-7[2:1],
{16},,,{64},,,{80},{320}2,{16},{64},,,{80},{320}2,{16},,,{64},,,{80},{320}4,{16},,,{64},,,{80},{320}5,{4},{16},{64},,,{80},{320}6,
{16},,,{64},,,{80},{320}5,{16},,,{64},,,{80},{320}4,{16},,,{64},,,{80},{320}3h[4:3]/5-2<8[3:1],
{4},,{16},,,{64},,,{80},{320}7qq4[3:2],{16},,,{64},,,{80},{320}7,
{4},,{16},,,{64},,,{80},{320}3qq7[1:1],{16},,,{64},,,{80},{320}5,
{4},{16},{64},,,{80},{320}6,{4},{16},{64},,,{80},{320}5,{16},,,{64},,,{80},{320}6,
{4},{16},,,{64},,,{80},{320}6,{16},,,{64},,,{80},{320}4,{16},,,{64},,,{80},{320}5-8-3[2:1],
{4},{16},,,{64},,,{80},{320}3-7>8-5[2:1],{16},,,{64},,,{80},{320}4,{4},{16},,,{64},,,{80},{320}1,
{16},,,{64},,,{80},{320}1,{16},,,{64},,,{80},{320}8b,,,,,,,,,,,,,,,,,,,,7b,,,,,,,,,,,,,,,,,,,,6b,,,,,,,,,,,,,,,,,,,,5bw1[8:7],{4},{16},,{64},,,{80},{320}B5,
{4},{16},{64},,,{80},{320}C,{16},,,{64},,,{80},{320}B8/B1/B2,
{4},,,{16},,,{64},,,{80},(220){320}7,
{16},{64},,,{80},{320}7h[8:1],{16},{64},,,{80},{320}5,{16},{64},,,{80},{320}5h[8:1],{16},{64},,,{80},{320}3,{16},{64},,,{80},{320}3h[8:1],{16},{64},,,{80},{320}1,{16},{64},,,{80},{320}1h[#0.1363678],{16},{64},,,{80},(227){320}6,
{16},{64},,,{80},{320}6h[8:1],{16},{64},,,{80},{320}4,{16},{64},,,{80},{320}4h[8:1],{16},{64},,,{80},{320}3,{16},{64},,,{80},{320}3h[8:1],{16},{64},,,{80},{320}1,{16},{64},,,{80},{320}1h[400:49],{16},{64},,,{80},(233){320}5,
{16},{64},,,{80},{320}5h[8:1],{16},{64},,,{80},{320}7,{16},{64},,,{80},{320}7h[8:1],{16},{64},,,{80},{320}8,{16},{64},,,{80},{320}8h[8:1],{16},{64},,,{80},{320}2,{16},{64},,,{80},{320}2h[400:49],{16},{64},,,{80},(239){320}6,
{16},{64},,,{80},{320}6h[8:1],{16},{64},,,{80},{320}3,{16},{64},,,{80},{320}3h[8:1],{16},{64},,,{80},{320}4,{16},{64},,,{80},{320}4h[8:1],{16},{64},,,{80},{320}8,{16},{64},,,{80},{320}8h[400:49],{16},{64},,,{80},(245){320}6,
{16},{64},,,{80},{320}6,{16},{64},,,{80},{320}8,{16},{64},,,{80},{320}8,{16},{64},,,{80},{320}2,{16},{64},,,{80},{320}2,{16},{64},,,{80},{320}4,{16},{64},,,{80},{320}4,{16},{64},,,{80},(252){320}7,
{16},{64},,,{80},{320}7,{16},{64},,,{80},{320}1,{16},{64},,,{80},{320}1,{16},{64},,,{80},{320}2,{16},{64},,,{80},{320}2,{16},{64},,,{80},{320}4,{16},{64},,,{80},{320}4,{16},{64},,,{80},(258){320}8x,
{16},{64},,,{80},{320}8x,{16},{64},,,{80},{320}6x,{16},{64},,,{80},{320}6x,{16},{64},,,{80},{320}5x,{16},{64},,,{80},{320}5x,{16},{64},,,{80},{320}3x,{16},{64},,,{80},{320}3x,{16},{64},,,{80},(264){320}7x,
{16},{64},,,{80},{320}7x,{16},{64},,,{80},{320}2x,{16},{64},,,{80},{320}2x,{16},{64},,,{80},{320}8x,{16},{64},,,{80},{320}8x,{16},{64},,,{80},{320}1,,,,,,,,,,,,,,,,,,,,2,,,,,,,,,,,,,,,,,,,,3,,,,,,,,,,,,,,,,,,,,4,,,,,,,,,,,,,,,,,,,,6/5b-8[8:1]*-7[8:1],
{16},,,{64},,,{80},{320}4/5b-2[8:1]*-3[8:1],{16},,,{64},,,{80},{320}5b-1[8:1]*w1[8:1],{16},,,{64},,,{80},{320}5b,{16},,,{64},,,{80},{320}8<5[4:1],
{16},,,{64},,,{80},{320}5p8[4:1],{16},,,{64},,,{80},{320}8<5[4:1],{16},,,{64},,,{80},{320}5-1[4:1],{16},,,{64},,,{80},{320}1>4[4:1],
{16},,,{64},,,{80},{320}4q1[4:1],{16},,,{64},,,{80},{320}1<6[4:1],{16},,,{64},,,{80},{320}2,{16},{64},,,{80},{320}3,{16},{64},,,{80},{320}4z8[8:1],
{16},,,{64},,,{80},{320}4,{16},,,{64},,,{80},{320}7,{16},{64},,,{80},{320}1,{16},{64},,,{80},{320}6,{16},{64},,,{80},{320}2,{16},{64},,,{80},{320}5,
{16},{64},,,{80},{320}3,{16},{64},,,{80},{320}4-8[8:1],,,,,,,,,,,,,,,,,,,,4,,,,,,,,,,,,,,,,,,,,4,{16},{64},,,{80},{320}4h[4:1],{4},{16},{64},,,{80},{320}1,,,,,,,,,,,,,,,,,,,,8,,,,,,,,,,,,,,,,,,,,7,
,,,,,,,,,,,,,,,,,,,6,,,,,,,,,,,,,,,,,,,,5,{16},{64},,,{80},{320}4b/3b,{16},{64},,,{80},{320}2b/5b,{16},{64},,,{80},{320}6b/1b,{16},{64},,,{80},{320}7b/8b,{16},{64},,,{80},{320}7b/8b,{16},{64},,,{80},{320}7b/8b,{16},{64},,,{80},{320}3/5,
{16},{64},,,{80},{320}3/5,{16},,,{64},,,{80},{320}2/7,{16},{64},,,{80},{320}2/7,{16},,,{64},,,{80},{320}1/5,{16},{64},,,{80},{320}1/5,{16},,,{64},,,{80},{320}3/7,
{16},{64},,,{80},{320}3/7,{16},,,{64},,,{80},{320}4/6,{16},{64},,,{80},{320}4/6,{16},,,{64},,,{80},{320}2/8,{16},{64},,,{80},{320}2/8,
{16},,,{64},,,{80},{320}3/6,{16},{64},,,{80},{320}3/6,{16},,,{64},,,{80},{320}1/8,{16},{64},,,{80},{320}1/8,{16},,,{64},,,{80},{320}B7,
{16},{64},,,{80},{320}B3,{16},,,{64},,,{80},{320}B7,{16},{64},,,{80},{320}B3,{16},,,{64},,,{80},{320}B7,{16},{64},,,{80},{320}B3,{16},,,{64},,,{80},{320}B7,
{16},{64},,,{80},{320}B3,{16},,,{64},,,{80},{320}B1/E3/E8/B6,{16},,,{64},,,{80},{320}B2/E4/E1/B7,{16},,,{64},,,{80},{320}B3/E5/E2/B8,
{16},,,{64},,,{80},{320}B4/E6/B2/Cf,{4},,{16},,,{64},,,{80},{320}1-5[8:1],
{16},,,{64},,,{80},{320}1-3[8:1],{16},{64},,,{80},{320}8-4[8:1],{16},{64},,,{80},{320}1-6[8:1],{16},{64},,,{80},{320}8,{16},{64},,,{80},{320}1,{16},,,{64},,,{80},{320}1-5[8:1],
,,,,,,,,,8,,,,,,,,,,7,,,,,,,,,,6,,,,,,,,,,5,{16},{64},,,{80},{320}1,{16},,,{64},,,{80},{320}6-3[4:1],{16},,,{64},,,{80},{320}6/3-1-5[4:1],{16},{64},,,{80},{320}4,{16},{64},,,{80},{320}4-8[8:1],
{16},,,{64},,,{80},{320}4,{4},{16},{64},,,{80},{320}4,{16},{64},,,{80},{320}5,{16},{64},,,{80},{320}2,{16},{64},,,{80},{320}6,
{16},{64},,,{80},{320}3,{16},{64},,,{80},{320}7,{16},{64},,,{80},{320}4,{16},{64},,,{80},{320}3,{16},{64},,,{80},{320}6,{16},{64},,,{80},{320}2,{16},{64},,,{80},{320}5,{16},{64},,,{80},{320}1,
{16},{64},,,{80},{320}7,{16},{64},,,{80},{320}4,{16},{64},,,{80},{320}6,{16},{64},,,{80},{320}2,{16},{64},,,{80},{320}7,,,,,,,,,,,,,,,,,,,,1,,,,,,,,,,,,,,,,,,,,7,{16},{64},,,{80},{320}2,,,,,,,,,,,,,,,,,,,,8,,,,,,,,,,,,,,,,,,,,2,
{16},{64},,,{80},{320}1,,,,,,,,,,,,,,,,,,,,3,,,,,,,,,,,,,,,,,,,,1-4[8:1],{16},,,{64},,,{80},{320}1/7,{16},,,{64},,,{80},{320}6,{16},{64},,,{80},{320}2,{16},{64},,,{80},{320}5,
{16},{64},,,{80},{320}3,{16},{64},,,{80},{320}6,{16},{64},,,{80},{320}4,{16},{64},,,{80},{320}7,{16},{64},,,{80},{320}3,{16},{64},,,{80},{320}8x,,,,,,,,,,,,,,,,,,,,1x,,,,,,,,,,,,,,,,,,,,2x,,,,,,,,,,,,,,,,,,,,3<8[4:1],,,,,,,,,,,,,,,,,,,,2x,
,,,,,,,,,,,,,,,,,,,1x,,,,,,,,,,,,,,,,,,,,8x,,,,,,,,,,,,,,,,,,,,1x,,,,,,,,,,,,,,,,,,,,2x,,,,,,,,,,,,,,,,,,,,3x,,,,,,,,,,,,,,,,,,,,4x-6-1[8:3],{4},{16},{64},,,{80},{320}1-5-8[4:1],{16},,,{64},,,{80},{320}8-3[8:1],
{16},,,{64},,,{80},{320}7,{16},,,{64},,,{80},{320}6,{16},{64},,,{80},{320}1,{16},{64},,,{80},{320}5,{16},{64},,,{80},{320}2,{16},{64},,,{80},{320}4/3,
{16},{64},,,{80},{320}2/5,{16},,,{64},,,{80},{320}5/6,{16},{64},,,{80},{320}4/7,{16},,,{64},,,{80},{320}1/8,{16},{64},,,{80},{320}2/7,{16},,,{64},,,{80},{320}4/5,
{16},{64},,,{80},{320}3/6,{16},,,{64},,,{80},{320}4/6,{16},{64},,,{80},{320}6,,,,,,,,,,,,,,,,,,,,4x,,,,,,,,,,,,,,,,,,,,6,,,,,,,,,,,,,,,,,,,,3x,,,,,,,,,,,,,,,,,,,,6,,,,,,,,,,,,,,,,,,,,2x,,,,,,,,,,,,,,,,,,,,6,
,,,,,,,,,,,,,,,,,,,1x,,,,,,,,,,,,,,,,,,,,6,,,,,,,,,,,,,,,,,,,,8x,,,,,,,,,,,,,,,,,,,,6b-4-1[4:1],{16},,,{64},,,{80},{320}1b<5[4:1],{16},,,{64},,,{80},{320}3b,{16},,,{64},,,{80},{320}4,
{16},{64},,,{80},{320}5,{16},{64},,,{80},{320}4,{16},{64},,,{80},{320}6,{16},{64},,,{80},{320}4,{16},{64},,,{80},{320}7,{16},{64},,,{80},{320}4,,,,,,,,,,,,,,,,,,,,3,,,,,,,,,,,,,,,,,,,,2,,,,,,,,,,,,,,,,,,,,1/8,,,,,,,,,,,,,,,,,,,,7,
,,,,,,,,,,,,,,,,,,,6,,,,,,,,,,,,,,,,,,,,5,,,,,,,,,,,,,,,,,,,,4,,,,,,,,,,,,,,,,,,,,1,{16},{64},,,{80},{320}2,{16},{64},,,{80},{320}3b-1-7[4:1],{16},,,{64},,,{80},{320}7b-5-3[4:1],{16},,,{64},,,{80},{320}3b>7[4:1],
{16},,,{64},,,{80},{320}7b-3[5:1],{4},{16},,,{64},,,{80},{320}5,,,,,,,,,,,,,,,,,,,,4,,,,,,,,,,,,,,,,,,,,5,,,,,,,,,,,,,,,,,,,,4,,,,,,,,,,,,,,,,,,,,5,
{16},{64},,,{80},{320}3,{16},{64},,,{80},{320}6,{16},{64},,,{80},{320}2,{16},{64},,,{80},{320}7,,,,,,,,,,,,,,,,,,,,1,,,,,,,,,,,,,,,,,,,,7,,,,,,,,,,,,,,,,,,,,1,,,,,,,,,,,,,,,,,,,,7,{16},{64},,,{80},{320}2,{16},{64},,,{80},{320}6,
{16},{64},,,{80},{320}3,{16},{64},,,{80},{320}5,{16},{64},,,{80},{320}4,{16},{64},,,{80},{320}6,,,,,,,,,,,,,,,,,,,,3,,,,,,,,,,,,,,,,,,,,6,,,,,,,,,,,,,,,,,,,,3,,,,,,,,,,,,,,,,,,,,6,{16},{64},,,{80},{320}7b-4<8[4:1],{16},,,{64},,,{80},{320}3,
{16},{64},,,{80},{320}2,{16},,,{64},,,{80},{320}1,{16},{64},,,{80},{320}7,{16},{64},,,{80},{320}2,{16},{64},,,{80},{320}5,{16},{64},,,{80},{320}2,
{16},{64},,,{80},{320}6,{16},{64},,,{80},{320}3,{16},{64},,,{80},{320}7,{16},{64},,,{80},{320}4,{16},{64},,,{80},{320}6,{16},{64},,,{80},{320}4,{16},{64},,,{80},{320}6,{16},{64},,,{80},{320}3,
{16},{64},,,{80},{320}7,{16},{64},,,{80},{320}2,{16},{64},,,{80},{320}5,{16},{64},,,{80},{320}3-6[4:1],{4},{16},{64},,,{80},{320}6,{16},{64},,,{80},{320}7,
{16},{64},,,{80},{320}8,{16},{64},,,{80},{320}1-7[8:1],{16},,,{64},,,{80},{320}1b-3[8:1],{16},,,{64},,,{80},{320}1b,{16},,,{64},,,{80},{320}5,
{16},{64},,,{80},{320}5,{16},{64},,,{80},{320}4,{16},{64},,,{80},{320}4,{16},{64},,,{80},{320}6,{16},{64},,,{80},{320}6,{16},{64},,,{80},{320}3,{16},{64},,,{80},{320}3,{16},{64},,,{80},{320}7,
{16},{64},,,{80},{320}7,{16},{64},,,{80},{320}2,{16},{64},,,{80},{320}2,{16},{64},,,{80},{320}8,{16},{64},,,{80},{320}8,{16},{64},,,{80},{320}1,{16},{64},,,{80},{320}1,{16},{64},,,{80},{320}2/8b,
{64},,{960},,,,,,,7,{64},,{320},,,{960}6,{64},,{320},,,5,{16},{64},,,{80},{320}1b/7,{64},,{960},,,,,,,2,{64},,{320},,,{960}3,{64},,{320},,,4,{16},{64},,,{80},{320}1b/8b,{64},,{960},,,,,,,2/7,{64},,{320},,,{960}3/6,{64},,{320},,,4/5,{16},{64},,,{80},{320}3b/6b,{16},{64},,,{80},{320}2b/7b,{16},{64},,,{80},(272){320}1b/8b,
{16},,,{64},,,{80},{320}2h[2:1],{16},,,{64},,,{80},{320}7,{16},,,{64},,,{80},{320}7,{16},{64},,,{80},{320}7,{16},,,{64},,,{80},{320}7h[2:1],
{16},,,{64},,,{80},{320}1,{16},{64},,,{80},{320}1,,,,,,,,,,,,,,,,,,,,1,,,,,,,,,,,,,,,,,,,,1,{16},{64},,,{80},{320}1,{16},{64},,,{80},{320}1h[2:1],{16},,,{64},,,{80},{320}8,
{16},,,{64},,,{80},{320}8,{16},,,{64},,,{80},{320}8,{16},{64},,,{80},{320}8,{16},{64},,,{80},{320}8,{16},{64},,,{80},{320}1,
{16},{64},,,{80},{320}1,{16},{64},,,{80},{320}8,{16},{64},,,{80},{320}1,{16},{64},,,{80},{320}1,{16},{64},,,{80},{320}8,{16},{64},,,{80},{320}8,{16},{64},,,{80},{320}8,{16},{64},,,{80},{320}1,
{16},{64},,,{80},{320}1,{16},{64},,,{80},{320}8h[2:1],{16},,,{64},,,{80},{320}1,{16},,,{64},,,{80},{320}1,{16},,,{64},,,{80},{320}1,
{16},{64},,,{80},{320}1h[2:1],{16},,,{64},,,{80},{320}7,{16},,,{64},,,{80},{320}7h[2:1],{16},{64},,,{80},{320}1,{16},{64},,,{80},{320}1,{16},{64},,,{80},{320}1,
{16},,{64},,,{80},{320}1h[16:7],{16},{64},,,{80},{320}8,{16},{64},,,{80},{320}7,{16},{64},,,{80},{320}7,{16},{64},,,{80},{320}7,{16},{64},,,{80},{320}1,{16},{64},,,{80},{320}2,{16},{64},,,{80},{320}7,
{16},{64},,,{80},{320}8,{16},{64},,,{80},{320}2,{16},{64},,,{80},{320}2,{16},{64},,,{80},{320}8,,,,,,,,,,,,,,,,,,,,7,,,,,,,,,,,,,,,,,,,,6,,,,,,,,,,,,,,,,,,,,5,{16},,,{64},,,{80},{320}4h[2:1],
{16},,,{64},,,{80},{320}5,{16},,,{64},,,{80},{320}6,{16},{64},,,{80},{320}6h[2:1],{16},,,{64},,,{80},{320}4,{16},,,{64},,,{80},{320}3h[4:1],
{16},{64},,,{80},{320}7,,,,,,,,,,,,,,,,,,,,6,,,,,,,,,,,,,,,,,,,,5,{16},{64},,,{80},{320}3,{16},{64},,,{80},{320}6h[2:1],{16},,,{64},,,{80},{320}2,{16},,,{64},,,{80},{320}3,
{16},{64},,,{80},{320}3h[2:1],{16},,,{64},,,{80},{320}5,{16},,,{64},,,{80},{320}5,{16},,,{64},,,{80},{320}4,
,,,,,,,,,,,,,,,,,,,6,,,,,,,,,,,,,,,,,,,,4,,,,,,,,,,,,,,,,,,,,6,,,,,,,,,,,,,,,,,,,,4,{16},{64},,,{80},{320}7,{16},,{64},,,{80},{320}8,{16},{64},,,{80},{320}1,{16},{64},,,{80},{320}2,{16},{64},,,{80},{320}3,{16},{64},,,{80},{320}4h[2:1],
{16},,,{64},,,{80},{320}5,{16},,,{64},,,{80},{320}5h[2:1],{16},,{64},,,{80},{320}4,{16},{64},,,{80},{320}4,{16},{64},,,{80},{320}3,
{16},{64},,,{80},{320}3,{16},{64},,,{80},{320}5,{16},{64},,,{80},{320}5,{16},{64},,,{80},{320}6,{16},{64},,,{80},{320}6,{16},,,{64},,,{80},{320}2,{16},,,{64},,,{80},{320}1h[2:1],
{16},,,{64},,,{80},{320}8,,,,,,,,,,,,,,,,,,,,7,{16},{64},,,{80},{320}6,,,,,,,,,,,,,,,,,,,,5,{16},,,{64},,,{80},{320}4b,{16},{64},,,{80},{320}3b,
{16},{64},,,{80},{320}2b,{16},{64},,,{80},{320}1b,{16},{64},,,{80},{320}8b,{16},,{64},,,{80},(282){320}1,{16},{64},,,{80},{320}8,{16},{64},,,{80},{320}2,{16},{64},,,{80},{320}7,{16},{64},,,{80},{320}3,
{16},{64},,,{80},{320}6,{16},{64},,,{80},{320}4,{16},{64},,,{80},{320}5,,,,,,,,,,,,,,,,,,,,6,,,,,,,,,,,,,,,,,,,,7,{16},{64},,,{80},{320}1,,,,,,,,,,,,,,,,,,,,2,,,,,,,,,,,,,,,,,,,,3,{16},{64},,,{80},{320}8,{16},{64},,,{80},{320}4,
{16},{64},,,{80},{320}7,{16},{64},,,{80},{320}3,{16},{64},,,{80},{320}6,,,,,,,,,,,,,,,,,,,,5,,,,,,,,,,,,,,,,,,,,4/2,,,,,,,,,,,,,,,,,,,,3,,,,,,,,,,,,,,,,,,,,4,{16},{64},,,{80},{320}7,,,,,,,,,,,,,,,,,,,,6,,,,,,,,,,,,,,,,,,,,5,{16},{64},,,{80},{320}3,
{16},{64},,,{80},{320}6,{16},{64},,,{80},{320}2,{16},{64},,,{80},{320}7,{16},{64},,,{80},{320}1,{16},{64},,,{80},{320}8,{16},{64},,,{80},{320}1,,,,,,,,,,,,,,,,,,,,2,,,,,,,,,,,,,,,,,,,,3/7,,,,,,,,,,,,,,,,,,,,6,
,,,,,,,,,,,,,,,,,,,5,{16},{64},,,{80},{320}4,{16},{64},,,{80},{320}6,,,,,,,,,,,,,,,,,,,,7,,,,,,,,,,,,,,,,,,,,8,{16},{64},,,{80},{320}4,,,,,,,,,,,,,,,,,,,,3,,,,,,,,,,,,,,,,,,,,2,{16},{64},,,{80},{320}7,,,,,,,,,,,,,,,,,,,,6,,,,,,,,,,,,,,,,,,,,5,{16},{64},,,{80},{320}1,
,,,,,,,,,,,,,,,,,,,2,,,,,,,,,,,,,,,,,,,,3,{16},{64},,,{80},{320}6,{16},{64},,,{80},{320}2,{16},{64},,,{80},{320}7,,,,,,,,,,,,,,,,,,,,6,,,,,,,,,,,,,,,,,,,,5,{16},{64},,,{80},{320}1,{16},{64},,,{80},{320}6,{16},{64},,,{80},{320}2,
{16},{64},,,{80},{320}7,{16},{64},,,{80},{320}3,,,,,,,,,,,,,,,,,,,,2,,,,,,,,,,,,,,,,,,,,1,{16},{64},,,{80},{320}8,{16},{64},,,{80},{320}2,{16},{64},,,{80},{320}7,{16},{64},,,{80},{320}3,,,,,,,,,,,,,,,,,,,,4,
,,,,,,,,,,,,,,,,,,,5,{16},{64},,,{80},{320}7,,,,,,,,,,,,,,,,,,,,6,,,,,,,,,,,,,,,,,,,,5,{16},{64},,,{80},{320}3,,,,,,,,,,,,,,,,,,,,2,,,,,,,,,,,,,,,,,,,,1/6,,,,,,,,,,,,,,,,,,,,7,,,,,,,,,,,,,,,,,,,,8,{16},{64},,,{80},{320}1,{16},{64},,,{80},{320}7,{16},{64},,,{80},{320}2,
{16},{64},,,{80},{320}6,,,,,,,,,,,,,,,,,,,,5,,,,,,,,,,,,,,,,,,,,4/1,,,,,,,,,,,,,,,,,,,,2,,,,,,,,,,,,,,,,,,,,3,{16},{64},,,{80},{320}5,{16},{64},,,{80},{320}2,{16},{64},,,{80},{320}6,{16},{64},,,{80},{320}3,{16},{64},,,{80},{320}7,
{16},{64},,,{80},{320}4,{16},{64},,,{80},{320}8,,,,,,,,,,,,,,,,,,,,7,,,,,,,,,,,,,,,,,,,,6,,,,,,,,,,,,,,,,,,,,3b,{16},{64},,,{80},{320}3b,{16},{64},,,{80},{320}2b,{16},{64},,,{80},{320}2b,{16},,{64},,,{80},{320}8,
{16},{64},,,{80},{320}1,{16},{64},,,{80},{320}7,{16},{64},,,{80},{320}2,{16},{64},,,{80},{320}6,{16},{64},,,{80},{320}3,{16},{64},,,{80},{320}5,{16},{64},,,{80},{320}4,,,,,,,,,,,,,,,,,,,,3,
,,,,,,,,,,,,,,,,,,,2,{16},{64},,,{80},{320}8,,,,,,,,,,,,,,,,,,,,7,,,,,,,,,,,,,,,,,,,,6,{16},{64},,,{80},{320}1,{16},{64},,,{80},{320}5,{16},{64},,,{80},{320}2,{16},{64},,,{80},{320}6,{16},{64},,,{80},{320}3,,,,,,,,,,,,,,,,,,,,4,
,,,,,,,,,,,,,,,,,,,5/7,,,,,,,,,,,,,,,,,,,,6,,,,,,,,,,,,,,,,,,,,5,{16},{64},,,{80},{320}2,,,,,,,,,,,,,,,,,,,,3,,,,,,,,,,,,,,,,,,,,4,{16},{64},,,{80},{320}6,{16},{64},,,{80},{320}3,{16},{64},,,{80},{320}7,{16},{64},,,{80},{320}2,{16},{64},,,{80},{320}8,
{16},{64},,,{80},{320}1,{16},{64},,,{80},{320}8,,,,,,,,,,,,,,,,,,,,7,,,,,,,,,,,,,,,,,,,,6/2,,,,,,,,,,,,,,,,,,,,3,,,,,,,,,,,,,,,,,,,,4,{16},{64},,,{80},{320}5,{16},{64},,,{80},{320}3,,,,,,,,,,,,,,,,,,,,2,,,,,,,,,,,,,,,,,,,,1,{16},{64},,,{80},{320}5,
,,,,,,,,,,,,,,,,,,,6,,,,,,,,,,,,,,,,,,,,7,{16},{64},,,{80},{320}2,,,,,,,,,,,,,,,,,,,,3,,,,,,,,,,,,,,,,,,,,4,{16},{64},,,{80},{320}8,,,,,,,,,,,,,,,,,,,,7,,,,,,,,,,,,,,,,,,,,6,{16},{64},,,{80},{320}3,{16},{64},,,{80},{320}7,{16},{64},,,{80},{320}2,
,,,,,,,,,,,,,,,,,,,3,,,,,,,,,,,,,,,,,,,,4,{16},{64},,,{80},{320}8,{16},{64},,,{80},{320}3,{16},{64},,,{80},{320}7,{16},{64},,,{80},{320}2,{16},{64},,,{80},{320}6,,,,,,,,,,,,,,,,,,,,7,,,,,,,,,,,,,,,,,,,,8,{16},{64},,,{80},{320}1,
{16},{64},,,{80},{320}7,{16},{64},,,{80},{320}2,{16},{64},,,{80},{320}6,,,,,,,,,,,,,,,,,,,,5,,,,,,,,,,,,,,,,,,,,4,{16},{64},,,{80},{320}2,,,,,,,,,,,,,,,,,,,,3,,,,,,,,,,,,,,,,,,,,4,{16},{64},,,{80},{320}6,,,,,,,,,,,,,,,,,,,,7,
,,,,,,,,,,,,,,,,,,,8/3,,,,,,,,,,,,,,,,,,,,2,,,,,,,,,,,,,,,,,,,,1,{16},{64},,,{80},{320}8,{16},{64},,,{80},{320}2,,,,,,,,,,,,,,,,,,,,3,,,,,,,,,,,,,,,,,,,,4,{16},{64},,,{80},{320}7,,,,,,,,,,,,,,,,,,,,6,,,,,,,,,,,,,,,,,,,,5/3,,,,,,,,,,,,,,,,,,,,2,,,,,,,,,,,,,,,,,,,,1,{16},{64},,,{80},{320}6,
{16},{64},,,{80},{320}2,,,,,,,,,,,,,,,,,,,,3,,,,,,,,,,,,,,,,,,,,4,{16},{64},,,{80},{320}7,{16},{64},,,{80},{320}3,{16},{64},,,{80},{320}8,{16},{64},,,{80},{320}2,{16},{64},,,{80},{320}7,,,,,,,,,,,,,,,,,,,,6,
,,,,,,,,,,,,,,,,,,,5,,,,,,,,,,,,,,,,,,,,4,,,,,,,,,,,,,,,,,,,,3,,,,,,,,,,,,,,,,,,,,2,,,,,,,,,,,,,,,,,,,,1,,,,,,,,,,,,,,,,,,,,8,,,,,,,,,,,,,,,,,,,,7,,,,,,,,,,,,,,,,,,,,6,,,,,,,,,,,,,,,,,,,,(141)5b-2-4-1b[2:3]*-8-6-1b[2:3],{1},{4},,,{16},,,{64},,,{80},{320}B8,
{16},{64},,,{80},{320}B7,{16},{64},,,{80},{320}B6,{16},{64},,,{80},{320}B3,,,,,,,,,,,,,,,,,,,,E4,
{16},,{64},,,{80},{320}8,{16},{64},,,{80},{320}8,{16},{64},,,{80},{320}7,{16},{64},,,{80},{320}7/E4,{16},{64},,,{80},{320}B4,{16},{64},,,{80},{320}B5,{16},{64},,,{80},{320}B6,,,,,,,,,,,,,,,,,,,,E7,
{16},{64},,,{80},{320}1,{16},,{64},,,{80},{320}2,{16},{64},,,{80},{320}1,{16},{64},,,{80},{320}2/B7,{16},{64},,,{80},{320}B2,{16},{64},,,{80},{320}B6,{16},{64},,,{80},{320}B3,,,,,,,,,,,,,,,,,,,,E3,
{16},,{64},,,{80},{320}8,{16},{64},,,{80},{320}8,{16},{64},,,{80},{320}7,,,,,,,,,,,,,,,,,,,,6,,,,,,,,,,,,,,,,,,,,5/E4,{16},{64},,,{80},{320}B3,{16},{64},,,{80},{320}B2,{16},{64},,,{80},{320}E7,,,,,,,,,,,,,,,,,,,,B6,
{16},,{64},,,{80},{320}3,{16},{64},,,{80},{320}3,{16},,,{64},,,{80},{320}B2,{16},{64},,,{80},{320}B1,{16},{64},,,{80},{320}E8,{16},{64},,,{80},{320}B3,,,,,,,,,,,,,,,,,,,,B4,
{16},,{64},,,{80},{320}8,{16},{64},,,{80},{320}8,,,,,,,,,,,,,,,,,,,,7,,,,,,,,,,,,,,,,,,,,6,,,,,,,,,,,,,,,,,,,,5,,,,,,,,,,,,,,,,,,,,4/B7,{16},{64},,,{80},{320}B8,{16},{64},,,{80},{320}B1,{16},{64},,,{80},{320}B5,,,,,,,,,,,,,,,,,,,,C,
{16},{64},,,{80},{320}2,{16},,{64},,,{80},{320}3,{16},{64},,,{80},{320}4,{16},{64},,,{80},(151.25){320}5,{16},{64},,,{80},{320}4,{16},{64},,,{80},{320}3,,,,,,,,,,,,,,,,,,,,6,,,,,,,,,,,,,,,,,,,,3,,,,,,,,,,,,,,,,,,,,6,
{16},{64},,,{80},{320}7,{16},{64},,,{80},{320}8,{16},{64},,,{80},{320}2,,,,,,,,,,,,,,,,,,,,3,,,,,,,,,,,,,,,,,,,,4,,,,,,,,,,,,,,,,,,,,(161.5)1,{16},{64},,,{80},{320}3,{16},{64},,,{80},{320}8,,,,,,,,,,,,,,,,,,,,2,,,,,,,,,,,,,,,,,,,,8,,,,,,,,,,,,,,,,,,,,2,
{16},{64},,,{80},{320}7,{16},{64},,,{80},{320}1,,,,,,,,,,,,,,,,,,,,1,{16},{64},,,{80},{320}6,{16},{64},,,{80},(171.75){320}2,{16},{64},,,{80},{320}7,{16},{64},,,{80},{320}8,,,,,,,,,,,,,,,,,,,,3,,,,,,,,,,,,,,,,,,,,8,,,,,,,,,,,,,,,,,,,,3,
{16},{64},,,{80},{320}7,{16},{64},,,{80},{320}6,{16},{64},,,{80},{320}4,,,,,,,,,,,,,,,,,,,,3,,,,,,,,,,,,,,,,,,,,2,,,,,,,,,,,,,,,,,,,,(182)5,{16},{64},,,{80},{320}6,{16},{64},,,{80},{320}4,,,,,,,,,,,,,,,,,,,,7,,,,,,,,,,,,,,,,,,,,4,,,,,,,,,,,,,,,,,,,,7,
{16},{64},,,{80},{320}3,{16},,{64},,,{80},{320}1b,{16},,,{64},,,{80},(192.25){320}7,,,,,,,,,,,,,,,,,,,,6,,,,,,,,,,,,,,,,,,,,7,,,,,,,,,,,,,,,,,,,,6,,,,,,,,,,,,,,,,,,,,7,,,,,,,,,,,,,,,,,,,,6,,,,,,,,,,,,,,,,,,,,7,,,,,,,,,,,,,,,,,,,,6,
,,,,,,,,,,,,,,,,,,,7,,,,,,,,,,,,,,,,,,,,6,,,,,,,,,,,,,,,,,,,,7,,,,,,,,,,,,,,,,,,,,6,{4},{64},,,{80},(202.5){320}2,,,,,,,,,,,,,,,,,,,,3,,,,,,,,,,,,,,,,,,,,2,,,,,,,,,,,,,,,,,,,,3,,,,,,,,,,,,,,,,,,,,2,,,,,,,,,,,,,,,,,,,,3,,,,,,,,,,,,,,,,,,,,2,,,,,,,,,,,,,,,,,,,,3,
,,,,,,,,,,,,,,,,,,,2,,,,,,,,,,,,,,,,,,,,3,,,,,,,,,,,,,,,,,,,,2,,,,,,,,,,,,,,,,,,,,3,{4},{64},,,{80},(212.75){320}1b/8b,,,,,,,,,,2,,,,,,,,,,3,,,,,,,,,,4,{16},,{64},{80},{320}8b/1b,,,,,,,,,,7,,,,,,,,,,6,,,,,,,,,,5,{16},,{64},{80},{320}2b/8b,
,,,,,,,,,3,,,,,,,,,,4,,,,,,,,,,5,{16},,{64},{80},{320}1b/7b,,,,,,,,,,6,,,,,,,,,,5,,,,,,,,,,4,{16},,{64},{80},(223){320}6b,{16},{64},,,{80},{320}7b,{16},,{64},,,{80},{320}8b,{16},,{64},,,{80},{320}1b,
{16},,{80},{160}2b,{16},{64},,{320},,,3b,{16},{64},,,{80},{320}4b,{16},{64},,,{80},{320}2h[8:1],{16},{64},,,{80},{320}1,{16},{64},,,{80},{320}7h[8:1],{16},{64},,,{80},{320}8,{16},{64},,,{80},{320}6<1[8:1],
,,,,,,,,,,,,,,,,,,,1,,,,,,,,,,,,,,,,,,,,6,{16},{64},,,{80},{320}2,,,,,,,,,,,,,,,,,,,,3,,,,,,,,,,,,,,,,,,,,4,{16},{64},,,{80},{320}8h[8:1],{16},{64},,,{80},{320}2,{16},{64},,,{80},{320}7h[8:1],{16},{64},,,{80},{320}1,{16},{64},,,{80},{320}6,
,,,,,,,,,,,,,,,,,,,7,,,,,,,,,,,,,,,,,,,,8<4[8:1],{16},{64},,,{80},{320}3,{16},{64},,,{80},{320}2,{16},{64},,,{80},{320}2,{16},{64},,,{80},{320}1,,,,,,,,,,,,,,,,,,,,2,,,,,,,,,,,,,,,,,,,,3-7>1b[8:1],{16},{64},,,{80},{320}5,{16},{64},,,{80},{320}6,
{16},{64},,,{80},{320}6,{16},{64},,,{80},{320}2,,,,,,,,,,,,,,,,,,,,3,,,,,,,,,,,,,,,,,,,,4q8>2b[8:3],{16},{64},,,{80},{320}1,{16},{64},,,{80},{320}1,{16},{64},,,{80},{320}8,{16},{64},,,{80},{320}7,{16},{64},,,{80},{320}7,
,,,,,,,,,,,,,,,,,,,6,,,,,,,,,,,,,,,,,,,,5-1[400:49],{16},{64},,,{80},{320}3,{16},{64},,,{80},{320}5/4,{16},{64},,,{80},(227){320}2h[8:1],{16},{64},,,{80},{320}8,{16},{64},,,{80},{320}2,,,,,,,,,,,,,,,,,,,,3,,,,,,,,,,,,,,,,,,,,4,{16},{64},,,{80},{320}8-5[8:1],
,,,,,,,,,,,,,,,,,,,7,,,,,,,,,,,,,,,,,,,,6,{16},{64},,,{80},{320}3,{16},{64},,,{80},{320}8,{16},{64},,,{80},{320}4q1[4:1],{16},{64},,,{80},{320}6,{16},{64},,,{80},{320}7,{16},{64},,,{80},{320}8,{16},{64},,,{80},{320}2,
,,,,,,,,,,,,,,,,,,,3,,,,,,,,,,,,,,,,,,,,4,{16},{64},,,{80},{320}8,{16},{64},,,{80},{320}3,{16},{64},,,{80},{320}8,,,,,,,,,,,,,,,,,,,,7,,,,,,,,,,,,,,,,,,,,6-8[8:1],{16},{64},,,{80},{320}2,{16},{64},,,{80},{320}6,{16},{64},,,{80},{320}3,
{16},{64},,,{80},{320}3,{16},{64},,,{80},{320}6,,,,,,,,,,,,,,,,,,,,4,,,,,,,,,,,,,,,,,,,,6,{16},{64},,,{80},{320}3,{16},{64},,,{80},{320}7,{16},{64},,,{80},{320}2,{16},{64},,,{80},{320}8,{16},{64},,,{80},{320}1b,
,,,,,,,,,,,,,,,,,,,1b,,,,,,,,,,,,,,,,,,,,1b,,,,,,,,,,,,,,,,,,,,1b,,,,,,,,,,,,,,,,,,,,1b,{16},,,{64},,,{80},(229){320}8,,,,,,,,,,,,,,,,,,,,7,,,,,,,,,,,,,,,,,,,,6,,,,,,,,,,,,,,,,,,,,5,,,,,,,,,,,,,,,,,,,,2,,,,,,,,,,,,,,,,,,,,3,,,,,,,,,,,,,,,,,,,,4,,,,,,,,,,,,,,,,,,,,5,
{16},{64},,,{80},{320}1,,,,,,,,,,,,,,,,,,,,2,,,,,,,,,,,,,,,,,,,,3,,,,,,,,,,,,,,,,,,,,4,,,,,,,,,,,,,,,,,,,,5,,,,,,,,,,,,,,,,,,,,6,,,,,,,,,,,,,,,,,,,,7,,,,,,,,,,,,,,,,,,,,8,,,,,,,,,,,,,,,,,,,,5,,,,,,,,,,,,,,,,,,,,6,,,,,,,,,,,,,,,,,,,,7,,,,,,,,,,,,,,,,,,,,8,,,,,,,,,,,,,,,,,,,,1,,,,,,,,,,,,,,,,,,,,2,,,,,,,,,,,,,,,,,,,,3,
,,,,,,,,,,,,,,,,,,,4,,,,,,,,,,,,,,,,,,,,2,,,,,,,,,,,,,,,,,,,,3,,,,,,,,,,,,,,,,,,,,4,,,,,,,,,,,,,,,,,,,,5,,,,,,,,,,,,,,,,,,,,6,,,,,,,,,,,,,,,,,,,,7,{16},{64},,,{80},{320}1,,,,,,,,,,,,,,,,,,,,2,,,,,,,,,,,,,,,,,,,,3,,,,,,,,,,,,,,,,,,,,4,,,,,,,,,,,,,,,,,,,,8,,,,,,,,,,,,,,,,,,,,7,,,,,,,,,,,,,,,,,,,,6,,,,,,,,,,,,,,,,,,,,5,
,,,,,,,,,,,,,,,,,,,7,,,,,,,,,,,,,,,,,,,,6,,,,,,,,,,,,,,,,,,,,5,,,,,,,,,,,,,,,,,,,,4,,,,,,,,,,,,,,,,,,,,8,,,,,,,,,,,,,,,,,,,,7,,,,,,,,,,,,,,,,,,,,6,,,,,,,,,,,,,,,,,,,,5-8<7-2[4:1],,,,,,,,,,,,,,,,,,,,3,{16},{64},,,{80},{320}2,{16},{64},,,{80},{320}3,{16},{64},{80},{320}3,{16},,{64},{80},{320}1,
{16},{64},,,{80},{320}1,{16},{64},,,{80},{320}2,{16},{64},,,{80},{320}2,{16},{64},,,{80},(233){320}1,{64},,{960},,,,,,,2,{64},,{320},,,{960}3,{64},,{320},,,8,{64},,{960},,,,,,,7,{64},,{320},,,{960}6,{64},,{320},,,2,{64},,{960},,,,,,,3,{64},,{320},,,{960}4,{64},,{320},,,7,{64},,{960},,,,,,,6,{64},,{320},,,{960}5,
{64},,{320},,,1,{64},,{960},,,,,,,2,{64},,{320},,,{960}3,{64},,{320},,,2,{64},,{960},,,,,,,3,{64},,{320},,,{960}4,{64},,{320},,,8,{64},,{960},,,,,,,7,{64},,{320},,,{960}6,{64},,{320},,,7,{64},,{960},,,,,,,6,{64},,{320},,,{960}5,{64},,{320},,,1,{64},,{960},,,,,,,2,{64},,{320},,,{960}3,{64},,{320},,,4,{64},,{960},,,,,,,5,{64},,{320},,,{960}6,{64},,{320},,,7,{64},,{960},,,,,,,8,{64},,{320},,,{960}1,{64},,{320},,,8,{64},,{960},,,,,,,7,{64},,{320},,,{960}6,
{64},,{320},,,5,{64},,{960},,,,,,,4,{64},,{320},,,{960}3,{64},,{320},,,2,{64},,{960},,,,,,,1,{16},{64},{240},{320}8x/3x,{16},{64},,,{80},{320}3x/7x,{16},{64},,,{80},{320}4x/6h[2:3],{4},{16},,,{64},,,{80},{320}4,
{16},,,{64},,,{80},{320}3,{16},,,{64},,,{80},{320}2bh[2:1],{4},,,{16},,,{64},,,{80},(239){320}3b,
{16},{64},,,{80},{320}5,,,,,,,,,,,,,,,,,,,,4,,,,,,,,,,,,,,,,,,,,5,{16},{64},,,{80},{320}3b,{16},{64},,,{80},{320}5,
,,,,,,,,,,,,,,,,,,,4,,,,,,,,,,,,,,,,,,,,5,{16},{64},,,{80},{320}3b,{16},{64},{80},{320}2b,{16},,{64},{80},{320}7b/1-5[8:1],{16},,,{64},,,{80},{320}1b/8-4[8:1],{16},,,{64},,,{80},{320}8b/2-6[8:1],
{16},,,{64},,,{80},{320}2b/7,{16},,,{64},,,{80},{320}5,,,,,,,,,,,,,,,,,,,,8,,,,,,,,,,,,,,,,,,,,4,,,,,,,,,,,,,,,,,,,,7,,,,,,,,,,,,,,,,,,,,3,,,,,,,,,,,,,,,,,,,,6,,,,,,,,,,,,,,,,,,,,2,,,,,,,,,,,,,,,,,,,,7,
,,,,,,,,,,,,,,,,,,,1,,,,,,,,,,,,,,,,,,,,8,,,,,,,,,,,,,,,,,,,,1,,,,,,,,,,,,,,,,,,,,2,,,,,,,,,,,,,,,,,,,,3,,,,,,,,,,,,,,,,,,,,4,,,,,,,,,,,,,,,,,,,,5,,,,,,,,,,,,,,,,,,,,6,,,,,,,,,,,,,,,,,,,,7,,,,,,,,,,,,,,,,,,,,8,,,,,,,,,,,,,,,,,,,,6,,,,,,,,,,,,,,,,,,,,5,,,,,,,,,,,,,,,,,,,,4,,,,,,,,,,,,,,,,,,,,3,,,,,,,,,,,,,,,,,,,,2,,,,,,,,,,,,,,,,,,,,1,
,,,,,,,,,,,,,,,,,,,8,,,,,,,,,,,,,,,,,,,,3,,,,,,,,,,,,,,,,,,,,7,,,,,,,,,,,,,,,,,,,,2,,,,,,,,,,,,,,,,,,,,6,,,,,,,,,,,,,,,,,,,,1,,,,,,,,,,,,,,,,,,,,5,{16},{64},,,{80},(241){320}6/2,{16},{64},,,{80},{320}3,,,,,,,,,,,,,,,,,,,,5,,,,,,,,,,,,,,,,,,,,3,{16},{64},,,{80},{320}2/6,,,,,,,,,,,,,,,,,,,,7,
,,,,,,,,,,,,,,,,,,,8,,,,,,,,,,,,,,,,,,,,1,,,,,,,,,,,,,,,,,,,,2,,,,,,,,,,,,,,,,,,,,3,,,,,,,,,,,,,,,,,,,,4,,,,,,,,,,,,,,,,,,,,5,,,,,,,,,,,,,,,,,,,,6,,,,,,,,,,,,,,,,,,,,7,,,,,,,,,,,,,,,,,,,,8/3,,,,,,,,,,2,,,,,,,,,,1,,,,,,,,,,8,,,,,,,,,,7,,,,,,,,,,6,,,,,,,,,,5,,,,,,,,,,4,,,,,,,,,,3,,,,,,,,,,2,,,,,,,,,,1,,,,,,,,,,8,,,,,,,,,,7,,,,,,,,,,6,,,,,,,,,,5,
,,,,,,,,,4,,,,,,,,,,3,,,,,,,,,,2,,,,,,,,,,1,,,,,,,,,,8,,,,,,,,,,7,,,,,,,,,,6,,,,,,,,,,5,,,,,,,,,,4,,,,,,,,,,3,,,,,,,,,,2,,,,,,,,,,1,{16},,{64},,,{80},{320}7,{16},{64},,,{80},{320}2,{16},{64},,,{80},{320}6,{16},{64},,,{80},{320}3,{16},{64},,,{80},{320}5,
{16},{64},,,{80},{320}4,{16},{64},,,{80},{320}3/6,{16},{64},,,{80},{320}2/7,{16},{64},,,{80},{320}1,,,,,,,,,,,,,,,,,,,,8,,,,,,,,,,,,,,,,,,,,1,,,,,,,,,,,,,,,,,,,,8,,,,,,,,,,,,,,,,,,,,1,,,,,,,,,,,,,,,,,,,,8,,,,,,,,,,,,,,,,,,,,1,,,,,,,,,,,,,,,,,,,,8,
,,,,,,,,,,,,,,,,,,,2b/7b,{16},{64},,,{80},{320}2b/7b,{16},{64},,,{80},{320}3b/6b,{16},{64},,,{80},{320}4b/5b,{16},{64},,,{80},(251){320}7,{16},{64},,,{80},{320}2,,,,,,,,,,,,,,,,,,,,3,,,,,,,,,,,,,,,,,,,,4,{16},{64},,,{80},{320}7,{16},{64},,,{80},{320}2,
,,,,,,,,,,,,,,,,,,,3,,,,,,,,,,,,,,,,,,,,4,{16},{64},,,{80},{320}7,{16},{64},,,{80},{320}7,{16},{64},,,{80},{320}2,{16},{64},,,{80},{320}7,,,,,,,,,,,,,,,,,,,,6,,,,,,,,,,,,,,,,,,,,5,{16},{64},,,{80},{320}2,{16},{64},,,{80},{320}7,
,,,,,,,,,,,,,,,,,,,6,,,,,,,,,,,,,,,,,,,,5,{16},{64},,,{80},{320}2,{16},{64},,,{80},{320}2,{16},{64},,,{80},{320}2,,,,,,,,,,,,,,,,,,,,8,,,,,,,,,,,,,,,,,,,,2,,,,,,,,,,,,,,,,,,,,8,,,,,,,,,,,,,,,,,,,,2,,,,,,,,,,,,,,,,,,,,8,,,,,,,,,,,,,,,,,,,,2,,,,,,,,,,,,,,,,,,,,8,
,,,,,,,,,,,,,,,,,,,3,,,,,,,,,,,,,,,,,,,,7,,,,,,,,,,,,,,,,,,,,3,,,,,,,,,,,,,,,,,,,,7,,,,,,,,,,,,,,,,,,,,3,,,,,,,,,,,,,,,,,,,,7,,,,,,,,,,,,,,,,,,,,3,,,,,,,,,,,,,,,,,,,,7,{16},{64},,,{80},{320}4,,,,,,,,,,,,,,,,,,,,6,,,,,,,,,,,,,,,,,,,,4,,,,,,,,,,,,,,,,,,,,6,,,,,,,,,,,,,,,,,,,,4,,,,,,,,,,,,,,,,,,,,6,,,,,,,,,,,,,,,,,,,,4,
,,,,,,,,,,,,,,,,,,,6,,,,,,,,,,,,,,,,,,,,5,,,,,,,,,,,,,,,,,,,,5,,,,,,,,,,,,,,,,,,,,5,,,,,,,,,,,,,,,,,,,,5,{16},{64},,,{80},{320}5,{16},{64},,,{80},(257){320}6,,,,,,,,,,,,,,,,,,,,3,,,,,,,,,,,,,,,,,,,,6,,,,,,,,,,,,,,,,,,,,3,,,,,,,,,,,,,,,,,,,,7,,,,,,,,,,,,,,,,,,,,2,,,,,,,,,,,,,,,,,,,,7,,,,,,,,,,,,,,,,,,,,2,
,,,,,,,,,,,,,,,,,,,8,,,,,,,,,,,,,,,,,,,,1,,,,,,,,,,,,,,,,,,,,8,,,,,,,,,,,,,,,,,,,,1,,,,,,,,,,,,,,,,,,,,8,,,,,,,,,,,,,,,,,,,,1,,,,,,,,,,,,,,,,,,,,8,,,,,,,,,,,,,,,,,,,,1,{16},{64},,,{80},{320}8b,,,,,,,,,,,,,,,,,,,,7b,,,,,,,,,,,,,,,,,,,,6b,,,,,,,,,,,,,,,,,,,,5b,{16},{64},,,{80},{320}2b,{16},{64},,,{80},{320}6b,
{16},{64},,,{80},{320}2b,,,,,,,,,,,,,,,,,,,,3b,,,,,,,,,,,,,,,,,,,,4b,{16},{64},,,{80},{320}7b,{16},{64},,,{80},{320}3h[12:1],{16},,{64},,{960},,,,,,,6b,{16},{64},{240},{320}6b,{16},{64},{480},{960}6b,{16},,{64},,{320},,,3h[12:1],
{16},,{64},,{960},,,,,,,7b,{16},{64},{240},{320}7b,{16},{64},{480},{960}7b,{16},,{64},,{320},,,3h[12:1],{16},,{64},,{960},,,,,,,8b,{16},{64},{240},{320}8b,{16},{64},{480},{960}8b,{16},,{64},,{320},,,3h[12:1],
{16},,{64},,{960},,,,,,,1b,{16},{64},{240},{320}1b,{16},{64},{480},{960}1b,{16},,{64},,{320},,,(263)2-4[8:1],{16},{64},,,{80},{320}7,{16},{64},,,{80},{320}2,{16},,,{64},,,{80},{320}3-5[8:1],
{16},{64},,,{80},{320}8,{16},{64},,,{80},{320}3,{16},,,{64},,,{80},{320}7-5[8:1],{16},{64},,,{80},{320}2,{16},{64},,,{80},{320}7,{16},,,{64},,,{80},{320}6-4[8:1],
{16},{64},,,{80},{320}1,{16},{64},,,{80},{320}6,{16},,,{64},,,{80},{320}1-5[8:1],{16},{64},,,{80},{320}7,{16},{64},,,{80},{320}1,{16},{64},,,{80},{320}7,{16},,{64},{80},{320}1>4[32:7],
{16},{64},{80},{320}7,{16},{64},,,{80},{320}1,,,,,,,,,,,,,,,,,,,,8,,,,,,,,,,,,,,,,,,,,7,,,,,,,,,,,,,,,,,,,,6,,,,,,,,,,,,,,,,,,,,5,{4},{16},{64},,,{80},{320}4,{16},{64},,,{80},{320}4,
{16},{64},,,{80},{320}6,{16},{64},,,{80},{320}3,{16},{64},,,{80},{320}6,{16},{64},,,{80},(269){320}8b<5-3[4:1],{16},,,{64},,,{80},{320}3,{16},{64},,,{80},{320}2,{16},,,{64},,,{80},{320}4,
{16},{64},,,{80},{320}1,{16},{64},,,{80},{320}5,{16},{64},,,{80},{320}2,{16},{64},,,{80},{320}6<2[4:1],{16},{64},,,{80},{320}3,{16},{64},,,{80},{320}6,{16},{64},,,{80},{320}4,
{16},{64},,,{80},{320}4,{16},{64},,,{80},{320}4,{16},,,{64},,,{80},{320}8,{16},,,{64},,,{80},{320}3,{16},{64},,,{80},{320}7,{16},,,{64},,,{80},{320}2-4[8:1],
{16},{64},,,{80},{320}2,{16},{64},,,{80},{320}6-8[8:1],{16},{64},,,{80},{320}6,{16},{64},,,{80},{320}1,{16},{64},,,{80},{320}1w5b[8:1],{16},,,{64},,,{80},{320}1b,
{4},{16},,,{64},,,{80},(271){320}1,,,,,,,,,,2,,,,,,,,,,3,,,,,,,,,,4,{16},{64},,,{80},{320}1,,,,,,,,,,2,,,,,,,,,,3,,,,,,,,,,4,{16},,{64},{80},{320}2,
,,,,,,,,,3,,,,,,,,,,4,,,,,,,,,,5,{16},,{64},{80},{320}2,,,,,,,,,,3,,,,,,,,,,4,,,,,,,,,,5,{16},,{64},,,{80},{320}8,,,,,,,,,,7,,,,,,,,,,6,,,,,,,,,,5,{16},{64},,,{80},{320}8,,,,,,,,,,7,,,,,,,,,,6,,,,,,,,,,5,{16},,{64},{80},{320}7,
,,,,,,,,,6,,,,,,,,,,5,,,,,,,,,,4,{16},,{64},{80},{320}7,,,,,,,,,,6,,,,,,,,,,5,,,,,,,,,,4,{16},,{64},,,{80},{320}8,,,,,,,,,,1,,,,,,,,,,2,,,,,,,,,,3,{16},{64},,,{80},{320}1,,,,,,,,,,2,,,,,,,,,,3,,,,,,,,,,4,{16},,{64},,,{80},{320}5,
{16},{64},,,{80},{320}6,{16},{64},,,{80},{320}7,{16},{64},,,{80},{320}8,{16},{64},,,{80},{320}1,{16},,,{64},,,{80},{320}1b,,,,,,,,,,2b,,,,,,,,,,3b,,,,,,,,,,4b,{16},,{64},{80},{320}1b,
,,,,,,,,,8b,,,,,,,,,,7b,,,,,,,,,,6b,{16},,{64},{80},{320}1b,,,,,,,,,,2b,,,,,,,,,,3b,,,,,,,,,,4b,{16},,{64},{80},(277){320}8-5[8:1],{16},{64},,,{80},{320}3,{16},{64},,,{80},{320}8,{16},{64},,,{80},{320}3,{16},{64},,,{80},{320}8-5[8:1],
{16},{64},,,{80},{320}2,{16},{64},,,{80},{320}8,{16},{64},,,{80},{320}2,{16},{64},,,{80},{320}1-4[8:1],{16},{64},,,{80},{320}6,{16},{64},,,{80},{320}1,{16},{64},,,{80},{320}6,{16},{64},,,{80},{320}1-4[8:1],
{16},{64},,,{80},{320}7,{16},{64},,,{80},{320}1,{16},{64},,,{80},{320}7,{16},{64},,,{80},{320}3,{16},{64},,,{80},{320}8,{16},{64},,,{80},{320}2,{16},{64},,,{80},{320}7,{16},{64},,,{80},{320}1-5[8:1],
{16},,,{64},,,{80},{320}1,{16},,,{64},,,{80},{320}4/6,{16},{64},,,{80},{320}3/7,{16},{64},,,{80},{320}2/8,{16},{64},,,{80},{320}2/8,{16},{64},,,{80},{320}1b,
{16},,,{64},,,{80},{320}4,{16},{64},,,{80},{320}6,{16},{64},,,{80},(281){320}4,{16},,,{64},,,{80},{320}3,{16},{64},,,{80},{320}6,{16},{64},,,{80},{320}3,
{16},,,{64},,,{80},{320}6,{16},,,{64},,,{80},{320}7,{16},{64},,,{80},{320}6,{16},{64},,,{80},{320}5,{16},{64},,,{80},{320}4,{4},{16},{64},,,{80},{320}B3,
{16},{64},,,{80},{320}B7,{16},{64},,,{80},{320}E4,{16},,,{64},,,{80},{320}B1,{16},{64},,,{80},{320}B7,{16},{64},,,{80},{320}B2,
{16},,,{64},,,{80},{320}E8,{16},,,{64},,,{80},{320}B6,{16},{64},,,{80},{320}E3,{16},{64},,,{80},{320}E6,{16},{64},,,{80},{320}E2,{4},{16},{64},,,{80},(293){320}2,
{16},{64},,,{80},{320}6,{16},{64},,,{80},{320}2,{16},,,{64},,,{80},{320}3,{16},{64},,,{80},{320}7,{16},{64},,,{80},{320}3,
{16},,,{64},,,{80},{320}7,{16},,,{64},,,{80},{320}8,{16},{64},,,{80},{320}8,{16},{64},,,{80},{320}7,{16},{64},,,{80},{320}7,{16},{64},,,{80},{320}6,
{16},{64},,,{80},{320}6,{16},{64},,,{80},{320}5,{16},{64},,,{80},{320}5,{16},{64},,,{80},{320}4,{16},{64},,,{80},{320}4,{16},{64},,,{80},{320}3,{16},{64},,,{80},{320}3,{16},{64},,,{80},{320}2,
{16},,,{64},,,{80},{320}1,{16},{64},,,{80},{320}8,{16},{64},,,{80},{320}1-5[8:1],{16},{64},,,{80},{320}8-4[8:1],{16},{64},,,{80},{320}1,{16},{64},,,{80},{320}8,{4},{16},{64},,,{80},(311){320}3,
{16},{64},,,{80},{320}5,{16},{64},,,{80},{320}4,{16},{64},,,{80},{320}6,{16},{64},,,{80},{320}3,{16},{64},,,{80},{320}7,{16},{64},,,{80},{320}2,
{16},{64},,,{80},{320}8,{16},{64},,,{80},{320}1,{16},{64},,,{80},{320}7,,,,,,,,,,,,,,,,,,,,8,,,,,,,,,,,,,,,,,,,,7,{16},{64},,,{80},{320}6,{16},{64},,,{80},{320}1,{16},{64},,,{80},{320}5,,,,,,,,,,,,,,,,,,,,2,
,,,,,,,,,,,,,,,,,,,5,,,,,,,,,,,,,,,,,,,,2,,,,,,,,,,,,,,,,,,,,5,{16},{64},,,{80},{320}4,{16},{64},,,{80},{320}3,,,,,,,,,,,,,,,,,,,,5,,,,,,,,,,,,,,,,,,,,3,{16},{64},,,{80},{320}6,{16},{64},,,{80},{320}2,{16},{64},,,{80},{320}7,{16},{64},,,{80},{320}1,
,,,,,,,,,,,,,,,,,,,8,,,,,,,,,,,,,,,,,,,,1,,,,,,,,,,,,,,,,,,,,8,,,,,,,,,,,,,,,,,,,,1,{16},{64},,,{80},{320}7,{16},{64},,,{80},{320}2,{16},{64},,,{80},{320}6,,,,,,,,,,,,,,,,,,,,3,,,,,,,,,,,,,,,,,,,,6,,,,,,,,,,,,,,,,,,,,3,,,,,,,,,,,,,,,,,,,,6,{16},{64},,,{80},{320}4b,
{16},,,{64},,,{80},(317){320}3/6,{16},{64},,,{80},{320}2/7,{16},{64},,,{80},{320}1,,,,,,,,,,,,,,,,,,,,8,,,,,,,,,,,,,,,,,,,,1,,,,,,,,,,,,,,,,,,,,8,,,,,,,,,,,,,,,,,,,,1,,,,,,,,,,,,,,,,,,,,8,,,,,,,,,,,,,,,,,,,,1,,,,,,,,,,,,,,,,,,,,8,
,,,,,,,,,,,,,,,,,,,1,,,,,,,,,,,,,,,,,,,,8,,,,,,,,,,,,,,,,,,,,1,,,,,,,,,,,,,,,,,,,,8,,,,,,,,,,,,,,,,,,,,2,,,,,,,,,,,,,,,,,,,,7,,,,,,,,,,,,,,,,,,,,2,,,,,,,,,,,,,,,,,,,,7,,,,,,,,,,,,,,,,,,,,2,{16},{64},,,{80},{320}6x/3x,{16},{64},,,{80},{320}4x/5x,{16},{64},,,{80},{320}4x/5x,{16},{64},,,{80},{320}3x/6x,
,,,,,,,,,,,,,,,,,,,3x/6x,{16},,{64},,,{80},{320}2,,,,,,,,,,,,,,,,,,,,7,,,,,,,,,,,,,,,,,,,,2,,,,,,,,,,,,,,,,,,,,7,,,,,,,,,,,,,,,,,,,,2,,,,,,,,,,,,,,,,,,,,7,,,,,,,,,,,,,,,,,,,,3,,,,,,,,,,,,,,,,,,,,6,,,,,,,,,,,,,,,,,,,,3,,,,,,,,,,,,,,,,,,,,6,,,,,,,,,,,,,,,,,,,,3,,,,,,,,,,,,,,,,,,,,6,
,,,,,,,,,,,,,,,,,,,4,,,,,,,,,,,,,,,,,,,,5,,,,,,,,,,,,,,,,,,,,4,,,,,,,,,,,,,,,,,,,,5,,,,,,,,,,,,,,,,,,,,4,{64},,{960},,,,,,,5,{64},,{320},,,{960}4,{64},,{320},,,3,{64},,{960},,,,,,,2,{64},,{320},,,{960}1,{64},,{320},,,8,{64},,{960},,,,,,,7,{64},,{320},,,{960}6,{64},,{320},,,5,{64},,{960},,,,,,,4,{64},,{320},,,{960}3,{64},,{320},,,2,{64},,{960},,,,,,,1,{64},,{320},,,{960}8,{64},,{320},,,7,{64},,{960},,,,,,,6,{64},,{320},,,{960}5,
{64},,{320},,,4,{16},{64},,,{80},{320}3/6,{16},{64},,,{80},{320}2/7,{16},,,{64},,,{80},{320}2b/8bh[4:1],,,,,,,,,,,,,,,,,,,,3b,,,,,,,,,,,,,,,,,,,,4b,,,,,,,,,,,,,,,,,,,,5b,,,,,,,,,,,,,,,,,,,,6b,{4},,{16},,,{64},,,{80},{320}7b/1bh[4:1],
,,,,,,,,,,,,,,,,,,,6b,,,,,,,,,,,,,,,,,,,,5b,,,,,,,,,,,,,,,,,,,,4b,,,,,,,,,,,,,,,,,,,,3b,{4},,{16},,,{64},,,{80},{320}1b-4-2-5b[4:7]*-6-8-5b[4:7]*w5b[4:7],
,,,,,,,,,,,,,,,,,,,2b/8b,,,,,,,,,,,,,,,,,,,,3b/7b,,,,,,,,,,,,,,,,,,,,4b/6b,,,,,,,,,,,,,,,,,,,,5b,{1},{4},,,{64},,,{80},(140){320},
{1},,,,{4},,,{16},,,{64},,,{80},{320}4,
{16},,,{64},,,{80},{320}6,{16},,,{64},,,{80},{320}3,
,,,,,,,,,,,,,,,,,,,4,,,,,,,,,,,,,,,,,,,,5,{16},{64},,,{80},{320}7,{16},{64},,,{80},{320}2,{1},{16},{64},,,{80},{320}6,
{16},{64},,,{80},{320}2,{16},{64},,,{80},{320}3,{16},{64},,,{80},{320}3,
{16},{64},,,{80},{320}7,,,,,,,,,,,,,,,,,,,,6,,,,,,,,,,,,,,,,,,,,5,{16},{64},,,{80},{320}3,{16},{64},,,{80},{320}4,{1},{16},{64},,,{80},{320}1,
{16},,,{64},,,{80},{320}7,{16},,,{64},,,{80},{320}2,
,,,,,,,,,,,,,,,,,,,3,,,,,,,,,,,,,,,,,,,,4,{16},{64},,,{80},{320}6,{16},{64},,,{80},{320}5,{16},,,{64},,,{80},{320}4,{16},{64},,,{80},{320}3,{16},{64},,,{80},{320}4,
{16},{64},,,{80},{320}6,{16},{64},,,{80},{320}7,{16},{64},,,{80},{320}6,{16},{64},,,{80},{320}5,{16},{64},,,{80},{320}4,{16},{64},,,{80},{320}3,{16},{64},,,{80},{320}2,{16},{64},,,{80},{320}3,
{16},{64},,,{80},{320}4,{16},,,{64},,,{80},{320}6,{16},{64},,,{80},{320}6,{16},,,{64},,,{80},{320}2/4,,,,,,,,,,,,,,,,,,,,(118),,,,,,,,,,,,,,,,,,,,2/4,{16},{64},,,{80},(97){320}3/5,
,,,,,,,,,,,,,,,,,,,(116),,,,,,,,,,,,,,,,,,,,3/5,{16},{64},,,{80},{320}7/5,{16},{64},,,{80},{320}6/4,{16},{64},,,{80},{320}5/3,{16},{64},,,{80},{320}5/3,{16},{64},,,{80},{320}6/4,{16},{64},,,{80},{320}7/5,{16},{64},,,{80},{320}8/6,
,,,,,,,,,,,,,,,,,,,(123),,,,,,,,,,,,,,,,,,,,1,,,,,,,,,,,,,,,,,,,,2,,,,,,,,,,,,,,,,,,,,3,{16},{64},,,{80},{320}4,{16},{64},,,{80},{320}6,{16},{64},,,{80},{320}7,{16},{64},,,{80},{320}7,{16},{64},,,{80},{320}7,{4},{16},{64},,,{80},{320}3,
{16},,,{64},,,{80},{320}6,{16},,,{64},,,{80},{320}6,{16},,,{64},,,{80},{320}4,
{16},{64},,,{80},(116){320}7,{16},{64},,,{80},{320}6,{16},{64},,,{80},{320}5,{16},{64},,,{80},{320}6,{16},{64},,,{80},{320}5,{16},{64},,,{80},{320}4,{16},{64},,,{80},{320}3,{16},{64},,,{80},{320}2,
{4},{16},{64},,,{80},{320}7,{16},{64},,,{80},{320}6,{16},,,{64},,,{80},{320}4,{16},{64},,,{80},{320}3,{16},,,{64},,,{80},(109){320}2,
{16},{64},,,{80},{320}7/2,,,,,,,,,,,,,,,,,,,,6,,,,,,,,,,,,,,,,,,,,5,{16},{64},,,{80},{320}5,{16},{64},,,{80},{320}6/4,{16},{64},,,{80},{320}5,{16},{64},,,{80},{320}4,{16},{64},,,{80},{320}3,
{16},{64},,,{80},{320}6/3,{16},{64},,,{80},{320}4,{16},{64},,,{80},{320}7,{16},{64},,,{80},{320}3,{16},{64},,,{80},{320}7/4,{16},{64},,,{80},{320}6,{16},{64},,,{80},{320}5,{16},{64},,,{80},{320}4,
{16},{64},,,{80},(101){320}3/6,{16},{64},,,{80},{320}4,{16},{64},,,{80},{320}5,{16},{64},,,{80},{320}6,{16},{64},,,{80},{320}3/7,{16},{64},,,{80},{320}6,{16},{64},,,{80},{320}5,{16},{64},,,{80},{320}4,
{16},{64},,,{80},{320}5/3,{16},{64},,,{80},{320}2,{16},{64},,,{80},{320}8,{16},{64},,,{80},{320}7,{16},{64},,,{80},{320}4/6,{16},{64},,,{80},{320}5,{16},{64},,,{80},{320}4,{16},{64},,,{80},{320}3,
{16},{64},,,{80},(100){320}6,{16},{64},,,{80},{320}5,{16},{64},,,{80},{320}4,{16},{64},,,{80},{320}3,{1},{4},,{16},{64},,,{80},(94){320}6,
{16},{64},,,{80},{320}5,{16},{64},,,{80},{320}4,{16},{64},,,{80},{320}3,{1},{4},,{16},{64},,,{80},(89){320}6,
{16},{64},,,{80},{320}5,{16},{64},,,{80},{320}4,{16},{64},,,{80},{320}3,{1},{4},,{16},{64},,,{80},(85){320}6,
{16},{64},,,{80},{320}5,{16},{64},,,{80},{320}4,{16},{64},,,{80},{320}3b-5v8b[4:5],
E
