&title=graduation
&artist=星野音楽工房
&first=0
&des=the graduates
&clock_count=4
&lv_5=14
&inote_5=(170)
{1},
{16}
2^4[4:3],,,,,,,,,,,,,,,,
6^4[4:3],,,,,,,,,,,,,,,,
2^4[4:3],,,,,,,,,,,,,,,,
5-1[4:2],,,,,,,,4-2[4:1],,,,,,,,
7^5[4:3],,,,,,,,,,,,,,,,
3^5[4:3],,,,,,,,,,,,,,,,
7^5[4:3],,,,,,,,,,,,,,,,
3^4v2^8[4:2]*^4v6^8[4:2],,,,,,,,,,,,,,,,
8qq1[4:2]/3h[8:1],,,,3h[8:1],,,,3h[8:1],,,,3h[8:1],,,,
2-5[4:1]/3h[8:1],,,,3h[8:1],,,,3h[8:1],,,,3h[8:1]/6,,,,
4qq5[4:2]/7h[8:1],,,,7h[8:1],,,,7h[8:1],,,,7h[8:1],,,,
Ch[8:3]/7h[8:1],,,,7h[8:1],,,,8,1,8,1,7,2,6,3,
5,4,5,4,6bqq3[4:3],,,,3,,3,,2,,2,,
1,,1,,8q5[8:1],,8,,5v2[8:1]*-7[8:1],,,,,,,,
1,8,1,8,2,7,2,7,{24}3,4,5,7,6,5,3,2,1,7,8,1,
{16}5-1[4:1],,,,,,,,5v6[8:1]*v4[8:1],,,,,,,,
3h[4:1]/7,,,,8,7,6,5,4-7[8:1]/3,,,2,,,1,,
1-5[8:1],,,8,,,7h[16:6],,A6,B6,B2,A2,,,1,8,
,3h[16:5]/7,,A5,B5,B1,A1,,D3/A2,,A8/E8,,A4/E4,,A6/D7,,
,,25,,3/4pp5[8:2],,,,4/5-3[8:1],,,,A8/E1,,,,
6h[4:1]/2,,,,1,2,3,4,5-2[8:1]/6,,6h[8:1],,,7h[8:1],,,
8-4[8:1],,1h[8:1],,,2h[16:6],,,A3,B3,B7,A7,,,8,1,
,6h[16:5]/2,,A4,B4,B8,A8,,D7/A7,,A1/E2,,A5/E6,,A3/D3,,
4bx-8[4:1],,,,,,,,4v3[8:1]*v5[8:1],,,,,,,,
2bh[8:1]/6p8[4:1],,,,3h[8:1],,,,3h[8:1],,,,3h[8:1]/7,,,,
3h[8:1]/6^4[8:1],,,,3h[8:1],,,,5pp7[8:1]/3h[8:1],,,,3h[8:1],,,,
{24}
E2,E3,A3,A6,E6,E5,1x,8x,7x,6x,5x,4x,E8,E7,A6,A3,E4,E5,8x,1x,2x,3x,4x,5x,
E2,E3,A3,A6,E6,E5,1x,8x,7x,6x,5x,4x,E8,E7,A6,A3,E4,E5,8bx,,,,,,
{16}6h[8:1]/2-5-1[4:1],,,,6h[8:1],,,,6h[8:1],,,,6h[8:1]/2,,,,
6h[8:1]/3-5[8:1],,,,6h[8:1],,,,4-1[8:1]/6h[8:1],,,,6h[8:1],,,,
{24}
E8,E7,A6,A3,E4,E5,8x,1x,2x,3x,4x,5x,E2,E3,A3,A6,E6,E5,1x,8x,7x,6x,5x,4x,
E8,E7,A6,A3,E4,E5,8x,1x,2x,3x,4x,5x,E2,E3,A3,A6,E6,E5,1bx-5[8:1],,,,,,
{16}
1>7[4:5]*<3[4:5]/Cf,,,,,,,,,,,,,,,,
,,,,,,,,,,,,,,,,
3>5[4:5]/7>5[4:5],,,,,,,,,,,,,,,,
,,,,,,,,,,,,46,,,,
37,,37,,2/6,,2/6,,15,,15,,4/8,,4/8,,
1,5,1,6,2,7,2,8,{24}3,4,5,7,6,5,3,2,1,7,8,1,
{16}3h[4:1],,,,
{24}8,7,6,2,3,4,7,6,5,1,2,3,5,6,7,4,3,2,
6,7,8,1,2,3,6,7,8,1,2,3,
7,6,5,4,3,2,7,6,5,4,3,2,
8b,E8,B7,B6,,,1b,E2,B2,B3,,,7b,E7,B6,B5,,,2b,E3,B3,B4,,,
{16}
8,1,,3,4,,6,5,6h[8:1],,1,,7h[16:1]/3h[16:1],,,,
8b-4[8:1]/4b-2[8:1],,,,,,,,1h[8:3],,3,,4,,5h[4:1],,
E1/D1,,E3/D3,,6,,6h[4:1],,4v6[8:1],,3h[8:1],,,,,,
1b-5[8:1]/5b-7[8:1],,,,,,,,8h[8:3],,6,,5,,4^1[4:1],,
,,1^6[4:1],,,,6,,5v8[8:1]*v2[8:1],,5,,,,,,
3h[16:3]/7h[8:3],,,,,,{24}2,3,4,{16}5b/8b,,,,4h[4:1],,6h[4:1],,
,,5,,4/7p4[8:3],,,,3h[8:1],,,2h[8:1],,,1,,
1V38[4:1]/5V74[4:1],,,,,,,,,,51,,2-5[8:1]/6-1-7[4:1],,37,,
,,,,4,,3h[8:2],,{24}7,6,5,4h[8:3],,,3,2,1,8,7,6,
{16}5w1[8:1],,,,5b,,,,37,,6,,35,,5h[4:1],,
3,,,,34,,4,,3,,5,,{24}3,,,,7x,6x,
5xh[4:1]/4,,,,,,E3,E4,E5,E6,E7,E8,E1,E2,E3,E4,,,6,,,7-4[8:1]/4-7[8:1],,,
,,,,,,,,,3-8[8:1]/8-3[8:1],,,,,,,,,,,,{16},,
{16}4/6h[8:1],,4,,4/C,,4,,4/2h[8:1],,4,,4/C,,4,,
6/4h[8:1],,6,,6/C,,6,,6/8h[8:1],,6,,6/C,,6,,
4,5,4,5,3,6,3,6,2,7,2,7,1,8,1,8,
{32}2x,3,4,5,6,7,8,1,2,3,4,5,6,7,8,1,2x/6x,5,4,3,2,1,8,7,6,5,4,3,2,1,8,7,
{16}6x<6[4:14]/Cf,,,,,,,,,,,,,,,,
,,,,,,,,,,,,,,,,
,,,,,,,,,,,,,,,,
3^1[4:2],,,,,,,,,,,,,,,,
2qq1[16:7],,,,,,,1^3[16:5],,,,,,,,,
6qq5[16:7],,,,,,,5^7[16:5],,,,,,,,,
{24}3h[4:1],,,,,,8,7,6,5,4,3,2,1,8,7,6,5,4,3,2,1,8,7,
2,3,4,5,6,7,8,1,2,3,4,5,6,7,8,1,2,3,4h[4:1],,,,,,
8,7,6,1,2,3,8,7,6,1,2,3,7,6,5,2,3,4,7,6,5,2,3,4,
6,7,8,1,2,3,4/5-1[8:2],6,7,8,1,2,3h[4:1],,,,,,,,,,,,
{16}
8b/2b,,6,5,,47,,4,5q1[8:1]*pp7[8:1],3,6,4,5x,,,,
2x/6x,,3,4,,52,,5,4p8[8:1]*qq2[8:1],6,3,5,4x,,,,
7x/3x,,6,4,5v8[8:1],4,6,,3/5-2[8:1],,4,,57,,6,,
15,,2,4,,4,3,5,1v4[8:1]*-6[8:1],,2/8,,1b,,,,
5b/3b,,7,8,,16,,1,8p4[8:1]*qq6[8:1],2,7,1,8x,,,,
3x/7x,,2,1,,83,,8,1q5[8:1]*pp3[8:1],7,2,8,1x,,,,
2x/6x,,1,1-5-1[16:5],,8,,7,7-3-7[4:1],,A5,,,,A3,,
{24}1x,2,3,4,5,6,7,8,1,2,3,4,8x/5x,7,6,5,4,3,2,1,8,7,6,5,
{16}
4x/3xw7[8:1]
,,,,3b,,,,1-5[8:1]/5,2,3,4,5/1b,,,,
37,,6,4,5,3,4,2,8-4[8:1],7,6,5,4/8b,,,,
62,,3,5,4,6,5,7,1-5[8:1],2,3,4,5/1b,,,,
{24}3q5[4:1]/7,,,,,,5<4[4:1]/3,,,,,,E6,E7,E8,E1,E2,E3,E4,,,,,,
{16}
7b/3b,,6,5,,7^4[8:1]/4,,38,,27,1,8,{24}3x,2,1,8,7,6,
{16}2/5,,3,4,,2^5[8:1]/5,,61,,72,8,1,{24}6x,7,8,1,2,3,
{16}6/4h[8:1],,7,,3/5h[8:1],,2,,1,7,1,7,{32}2,3,4,5,8,7,6,5,
{16}1bpp4pp7[4:6],,1h[8:15],,
{4}
,,,,,,,
{24}
6x,5,4,3,2,1,7x,6,5,4,3,2,
8x,7,6,5,4,3,1x,8,7,6,5,4,
8x,7,6,4x,3,2,8xpp3[8:3]*qq5[8:3],7,6,3x,2,1,
,,,,,,,,,,,,
{16}
2b/6b,,,,3/A5,B5,C,B1,A1/3,,,D8/B8,3,,D7/B6,,
3x-1[8:1]/5x-3[8:1],,,,5b/3b-7[8:1],,,,3b/1V75[8:1]*V35[8:1],,,,1,,,,
36,,,,6/A4,B4,C,B8,6/A8,,A1,,6/A2/B2,,A3,,
6x-8[8:1]/4xV62[4:1],,8xV24[4:1],,46,,,,,,,,5b/3b,,,,
2<4[4:6]/6v4[4:6],,,,,,,,,,,,,,,,,,,
,,,,,,,,,,,,,
E1,B1,B2,E3,E7,B6,B5,E5,Ch[8:3],,E8/D8,,E7/D7,,E6/D6,,,,4v6^8[8:29],,3^4v2^8[8:28],,,,,,,,,,,,
{1},,,,
E
