&title=Last | Moment
&artist=onoken
&first=0.04
&des=BeyondPharmazZ
&lv_4=12
&lv_5=13+
&inote_4=(175){16},,,,,,,,,,,,,,,,
6h[8:3],,,,5,,4,,,,64,,,,45,,
,,,,,,,,,,,,,,,,
3h[8:3],,,,4,,5,,,,35,,,,54,,
,,,,,,,,,,,,,,,,
6h[8:3],,,,7,,8,,,,78,,,,18,,
,,,,,,,,,,,,,,,,
3h[8:3],,,,2,,1,,,,21,,,,8-4[8:1]/1-5[8:1],,
,,,,,,,,63,,,,,,,,
8h[8:3],,,,,,7h[8:3],,,,,,6h[8:2],,,,
1h[8:3],,,,,,2h[8:3],,,,,,3h[8:2],,,,
6h[8:3],,,,4,,4^1[4:1],,,,5^8[4:1],,,,,,
,,,,,,,,4h[8:2],,,,6h[8:2],,,,
1h[8:3],,,,,,2h[8:3],,,,,,3h[8:2],,,,
8h[8:3],,,,,,7h[8:3],,,,,,6h[8:2],,,,
3h[8:3],,,,5,,5-1[4:1],,,,4-8b[8:6],,,,,,
,,,,,,,,,,Cf,,,,,,
6,,,,6,,,,5,,,,5,,,,
4,,,,4,,,,3,,,,3,,,,
7,,,,7,,,,8,,,,8,,,,
1,,,,1,,,,2,,,,2,,,,
5,,,,5,,,,4,,,,4,,,,
6,,,,6,,,,3,,,,3,,,,
8h[8:3],,,,,,7,,6,,5,,4,,3,,
2,,1h[8:2],,,,Cf,,,,,,3h[8:2],,,,
4h[8:3],,,,,,2h[8:3],,,,,,6h[8:2],,,,
5h[8:3],,,,,,7h[8:3],,,,,,1h[8:2],,,,
4h[8:3],,,,,,2h[8:3],,,,,,8h[8:2],,,,
5h[8:1],,7-2[8:1],,,,,,,,,,7h[8:2],,,,
8h[8:3],,,,,,6h[8:3],,,,,,2h[8:2],,,,
1h[8:3],,,,,,3h[8:3],,,,,,6h[8:2],,,,
2h[8:1],,5h[8:1],,4h[8:1],,7-3[8:1],,,,2-6[8:1],,,,,,
,,,,,,,,,,Cf/E1/E5,,,,,,
7h[8:3],,,,,,2>7[8:5],,,,,,5xh[8:6],,,,
,,,,,,,,1,,,,8,,,,
2h[8:3],,,,,,7<2[8:5],,,,,,4xh[8:7],,,,
,,,,,,,,,,2,,1,,8h[8:3],,
,,,,1,,1h[8:2],,,,2h[8:2],,,,3^8[8:3],,
,,,,7,,,,6,,,,5w1[8:4],,,,
,,,,,,,,,,,,63,,63,,
,,,,24,,,,57,,,,1v4[8:1]/8v5[8:1],,,,
,,,,3b/6b,,,,,,18,,7/2>7[8:4],,,,
8,,,,1,,,,2h[8:2],,,,3h[8:2],,,,
4^7[8:1],,,,1,,1^4[8:1],,,,6,,6^1[8:1],,,,
5,,,,3^8[8:1],,,,4,,,,45,,,,
7x/8x,,7,,1x/2x,,2,,6x/5x,,6,,3x/4x,,3,,
1x/8x,,,,4x/5x,,4x-8[1:0]/5x-1[1:0],,,,Cf,,,,,,
4>5[4:11],,,,,,,,,,,,,,,,
,,,,,,,,,,,,,,,,
,,,,,,,,,,,,,,,,
,,,,,,,,,,,,,,,,
5<4[4:11],,,,,,,,,,,,,,,,
Chf[8:21],,,,,,,,,,,,,,,,
,,,,,,,,,,,,,,,,
,,,,,,,,,,,,,,,,
6h[8:12],,,,,,7,,,,,,1,,,,
,,3,,,,,,5,,,,,,,,
3h[8:12],,,,,,2,,,,,,8,,,,
,,6,,,,,,4,,,,45,,,,
7h[8:6],,,,,,5,,,,,,2h[8:6],,,,
,,4,,,,,,7,,,,,,,,
E8/B8/B1/E2,,,,,,,,E6/E5/E4,,,,,,,,
5x-8[87.5#8:1]/4x-1[87.5#8:1],,,,,,,,,,,,,,,,
6b-1[8:1]/5b,,,,3,,,,6,,5,,13,,,,
3-8[8:1]/4,,,,6,,,,3,,4,,86,,,,
5-2[8:1]/6,,,,7,,8V63[8:5],,,,2,,,,1h[8:3],,
,,,,,,,,5-8[8:1]*-2[8:1],,,,5,,,,
4/3v8[8:1],,,,6,,,,3,,4,,68,,,,
5/6v1[8:1],,,,3,,,,6,,5,,31,,,,
3/4v6[8:1],,,,2,,1-4q2[8:5],,,,7,,,,8h[8:3],,
,,,,,,,,8w4[8:1],,,,8,,,,
2/6^1[8:1],,,,5,,,,3,,4,,71,,,,
7/3^8[8:1],,,,4,,,,6,,5,,28,,,,
3/4b^7[8:1],,,,,,1b^4[8:1],,,,,,6b^1[8:1],,,,
,,3b^6[8:1],,,,,,8b^3[8:1],,,,8b<8b[8:16],,,,
,,,,,,,,,,,,,,,,
,,,,,,,,,,,,,,,,
,,,,,,,,,,,,,,,,
,,2,,5,,3,,6,,4,,7,,5-1[8:4],,
,,,,,,,,,,6,,7,,8-4[8:4],,
,,,,,,,,,,,,3,,,,
6-1[8:1],,,,,,5-2[8:1],,,,,,4-7[8:1],,,,
,,3-8[8:1],,,,,,5w1[8:1],,,,5,,,,
3b-8[8:1]*-6[8:1]/4b,,,,3,,,,5,,4,,13,,,,
6-1[8:1]*-3[8:1]/5,,,,6,,,,4,,5,,86,,,,
3/4h[4:1],,,,2,,1-5[8:1]*-3[8:1],,,,1<3[8:3],,,,6h[8:3],,
,,,,,,,,B6/B7,,,,B3/B2,,,,
7-4[8:1]*-2[8:1]/8,,,,7,,,,1,,7,,45,,,,
2-5[8:1]*-7[8:1]/1,,,,2,,,,8,,2,,54,,,,
7/8h[4:1],,,,6,,5-7[8:1]*-1[8:1],,,,5>7[8:3],,,,2h[8:3],,
,,,,,,,,B3/B2/E3,,,,B6/B7/E7,,,,
2-5[8:1]/5-8[8:1],,,,25,,,,1,,3,,65,,,,
7-4[8:1]/4-1[8:1],,,,74,,,,8,,6,,34,,,,
2b-5[8:1],,1,,2,,7b-4[8:1],,8,,7,,3b-8[8:1],,4,,
3,,6b-1[8:1],,5,,6,,4bw8[8:1],,,,4b,,,,
6-1[8:1]/5-1[8:1],,,,65,,,,4-8[8:1]/3-8[8:1],,,,43,,,,
6-2[8:1]/5-2[8:1],,,,65,,,,4-7[8:1]/3-7[8:1],,,,43,,,,
45,,45,,36,,36,,27,,27,,18,,18,,
1,8,1,8,1,8,1,8,Chf[4:2],,,,,,,,
8bV64V28[4:11]*V24V68[4:11],,,,,,,,,,,,,,,,
,,,,,,,,,,,,,,,,
,,,,,,,,,,,,,,,,
,,,,,,,,,,,,,,,,
8p3[8:1],,,,1,,1,,,,2q3[8:5],,,,2,,
,,,,,,,,,,,,,,,,
1s5[8:1],,,,8,,8,,,,7-2[8:1]/4q8[8:1],,,,74,,
,,,,,,,,,,,,,,,,
,,,,,,,,,,,,,,,,
E
&inote_5=(175){16},,,,,,,,,,,,,,,,
3h[8:3],,4,,5,,6h[8:2],,,,5-2[8:1],,,,5,,
,,,,,,,,,,,,,,,,
6h[8:3],,5,,4,,3h[8:2],,,,4-7[8:1],,,,4,,
,,,,,,,,,,,,,,,,
2h[8:3],,1,,8,,7h[8:2],,,,6-2[8:1],,,,6,,
,,,,,,,,,,,,,,,,
7h[8:3],,8,,1,,2h[8:2],,,,3-7[8:1],,,,3xh[8:5],,
,,,,,,,,6x,,,,45,,,,
8^5[8:1],,,,,,4q8[8:1],,,,,,7h[8:2],,,,
1^4[8:1],,,,,,5p1[8:1],,,,,,2h[8:2],,,,
7^2[8:1],,,,3,,3^6[8:1],,,,3/8z4[8:3],,,,8,,
,,,,,,,,23,,,,67,,,,
1v4[8:1],,,,,,5p8[8:1],,,,,,2h[8:2],,,,
8v5[8:1],,,,,,4q1[8:1],,,,,,7h[8:2],,,,
2^7[8:1],,,,6,,6^3[8:1],,,,6/1s5[8:4]*z5[8:4],,,,1,,
,,,,,,,,,,C,,E7,,E3,,
6,,,,6,,4,,6,,,,63,,,,
8,,1,,7,,2,,6,,,,2,4,1,5,
3,,,,3,,5,,3,,,,36,,,,
1,,8,,2,,7,,3,,,,7,5,8,4,
6,,,,3,,4,,3,,,,27,,,,
8,,1,,6,,1,,4,,,,1,8,3,6,
Chf[8:11],,,,5,,5,,6,,6,,7,,7,,
8,,8-4[16:1],,,,,,,,,,2h[8:2],,,,
3^6[8:1],,,,,,1^4[8:1],,,,,,7h[8:2],,,,
6^3[8:1],,,,,,8^5[8:1],,,,,,2h[8:2],,,,
3^6[8:1],,,,,,1^4[8:1],,,,,,7h[8:5],,,,
8,,8^3[8:1],,,,,,,,,,4h[8:2],,,,
2^7[8:1],,,,,,4^1[8:1],,,,,,5h[8:2],,,,
7^2[8:1],,,,,,5^8[8:1],,,,,,4h[8:2],,,,
8,,73,,62,,5<1[4:1]/1>5[4:1],,,,5v7[4:1]/1v3[4:1],,,,,,
,,,,,,,,,,B1`C`B5,,,,,,
7x<3[8:3],,,,2,,3x>7[8:3],,,,8,,7xp4[8:6],,,,
3,,,,2,,,,3,,2,,,,,,
2x>6[8:3],,,,7,,6x<2[8:3],,,,1,,2xq5[8:6],,,,
6,,6,,7,,6,,,,6,,7,,8,,
1,,,,12,,8-4[8:1]/3,,,,8/2-6[8:1],,,,2/3h[8:7],,
,,,,7,,,,8,,,,1qq5[8:5],,,,
1/2h[8:7],,,,,,,,,,,,6,,6,,
,,,,3-8[8:1]/7,,,,3/7-4[8:1],,,,7-2b[8:1]/3-6b[8:1],,,,
,,,,4b/8b,,,,1,,8,,2x/7x,,,,
6V48[8:2]/5,,,,8x-6[8:1],,,,2,,4,,7x/8x,,,,
3V51[8:2]/4,,,,1x-3[8:1],,,,7,,5,,1x/2x-5[8:1],,,,
2/7-4[8:1],,,,7x/1x-6[8:1],,,,1/8-3[8:1],,,,8x/4x,,,,
1x/2x,,4,,7x/8x,,5,,1x/2x,,5,,7x/8x,,4,,
1x/8x,,27,,36,,4x-8[16:1]/5x-1[16:1],,,,B5`B4`C`B8`B1,,,,,,
2b<3[4:13]/7b,,,,,,E8,,,,,,E2,,,,
,,E4,,,,,,E6,,,,,,,,
E3,,,,,,E1,,,,,,E7,,,,
,,E5,,,,,,E3,,,,,,,,
7>6[4:13]/2,,,,,,E2,,,,,,E8,,,,
Cf,,E6,,,,,,E4,,,,,,,,
E7,,,,,,E1,,,,,,E3,,,,
,,E5,,,,,,E7,,E3`B3`B4`E5,,8,,1,,
6-3[4:4],,,,,,7,,C,,,,8,,,,
,,1,,8,,,,2/C,,,,,,,,
3-6[4:4],,,,,,2,,C,,,,1,,,,
,,8,,1,,,,7/C,,E1,,E7,,E3,,
6-3-6[4:4],,,,,,7,,C,,,,8,,,,
,,1,,8,,,,2/C,,,,,,,,
{32}B7,E8,{16},,,4,,5,,{32}B2,E2,{16},5,,4,,6,,
{32}E5,Ch[32:15],{16},,,,,,,8w4[8:1],,,,,,,,
6b<3[4:1]/2b,,,,3>6[4:1],,,,5,,4,,3,,,,
2>7[4:1]/6,,,,7<2[4:1],,,,1,,8,,7,,,,
5<3-7[8:4],,,,4,,4-8[8:1],,,,4>5[8:3],,,,4/1h[8:3],,
,,,,,,,,1-5[16:1]/8-4[16:1],,,,18,,,,
7V15[4:1]/2,,,,5-1-7[4:1],,,,2,,3,,4,,,,
2V84[4:1]/7,,,,4-8-2[4:1],,,,7,,6,,5,,,,
4>6-2[8:4],,,,5,,5-1[8:1],,,,5<4[8:3],,,,5/8h[8:3],,
,,,,,,,,5-1[16:1]/4-8[16:1],,,,5V72b[4:1]/4V27b[4:1],,,,
,,,,2bx/7bx,,,,,,1p8[8:3],,8,,1,,
,,,,,,,,1^4[8:1]/8^5[8:1],,,,18,,,,
8/1bh[8:3],,2,,3,,4bh[8:3],,5,,6,,7bh[8:3],,8,,
1,,2bh[8:3],,3,,4,,5bw1[8:1],,,,5b<4[8:24],,,,
,,,,,,,,B5/B6/E6,,,,,,,,
,,,,,,,,B8/B1/E1,,,,,,,,
,,,,,,,,B4/B3/E4,,,,,,,,
,,5,,6,,7,,8h[8:8],,3,,2,,1h[8:13],,
,,,,,,,,,,7,,,6,,5h[16:9],
,,,,,,,,,,,,37,,,,
1h[8:2]/2h[8:2],,,,,,7h[8:2]/8h[8:2],,,,,,5h[8:2]/6h[8:2],,,,
,,4h[8:2]/3h[8:2],,,,,,7-3[16:1]/8-4[16:1],,,,78,,,,
5b<1[8:2]/2b,,,,1<3[8:3],,,,3^1[8:1],,2,,3,,,,
8>4[8:2]/5,,,,4>6[8:3],,,,6^4[8:1],,5,,6,,,,
1-5V37V51b[8:5],,,,7,,7,,,,1qq5[8:3]*pp5[8:3],,,,,,
,,,,,,,,2-6[16:1]/1-5[16:1],,,,21,,,,
7/4<8[8:2],,,,8q1[8:3],,,,4^6[8:1],,6,,4,,,,
7<2[8:2]/4,,,,2p7[8:3],,,,5^3[8:1],,3,,5,,,,
8-4V68V24b[8:5],,,,2,,2,,,,4qq1[8:3]*pp7[8:3],,,,,,
,,,,A7/A1,,,,A6/A2,,,,A5/A3,,,,
4-1[8:1]/5,,,,8V62[8:3],,,,1-7[8:1],,2,,1,,,,
5-8[8:1]/4,,,,1V37[8:3],,,,8-2[8:1],,7,,8,,,,
3b-8[8:1],,1,,4,,6b-1[8:1],,8,,5,,2b-5[8:1],,8,,
3,,7b-4[8:1],,1,,6,,8bw4[16:1],,,,{64}8b,B7/B1/B8,B6/B2/C,B5/B3/B4,{16},,,
1/2-5[8:1],,,,12,,,,7-4[8:1]/8,,,,78,,,,
1/2^5[8:1],,,,12,,,,7^4[8:1]/8,,,,78,,8,,
15,,26,,37,,48,,37,,26,,15,,8,4,
1,5,2,6,3,7,4,8,{32}E5,E6,E7,E8,E1,E2,E3,E4,{16}Cf,,,,
6bpp4[8:21]/3bqq5[8:21],,,,,,,,,,,,,,,,
,,,,,,,,,,,,,,,,
,,,,,,,,,,,,,,,,
,,,,,,,,,,,,,,,,
8-5[8:1],,3-6[8:1],,8,,3,,,,7-3[8:1],,,,1-4[8:3]*-6[8:3],,
,,,,,,,,,,,,,,,,
1s5[8:1],,B8,,CS,,B4,,,,7-2[8:1]/1-4[8:1],,,,A7/A1,,
,,,,,,,,,,,,,,,,
,,,,,,,,,,,,,,,,
E
