&title=リレイアウター(いよわRemix)
&artist=iyowa
&first=-0.03
&des=xiaon269
&des_5=xiaon269
&lv_5=13+
&inote_5=(151){4},,,,{8},E7,
{4},{8},E3,{4},{8},E6,
,E4,,C,,C/E3/E7,
,5,,4,,5,,4,
,6/4,,3/5,,8/1,,5/4,
,6pp1[2:1],,4,,3,,2,
,2pp5[2:1],,8,,7,,6,
,3xqq4>2[2:1]/6xpp5<7[2:1],{4},,,{8},1h[4:1]/8h[4:1],
{4},{8},B6/B5/B4/B3,,2b/7b,
,8/1,{16}6,5,{8}6,{16}3,4,{8}3,{16}5,4,{8}5,
{16}1,2,1,8,{8}7,3xh[8:1]/5xh[8:1],,1b/8b,2b/7b,3b/6b,
4b/5b,4x-2[8:1],3,5-1[8:1],6,4-8[8:1],3,5-7[8:1],
6,5x/1xh[8:1],,2xh[8:1]/6xh[8:1],,{16}2x/6x,7x/3x,{8}8x/4x,1bx/5bx,
,Cfh[8:1],,8x,{4}8pp8[8:1]*qq8[8:1],8w4[8:1],
8x,{8}2/6,8h[8:1]/1h[8:1],,8,{4}1w5[8:1],
{8}1bx,{4},{8}E7/B7/B2/E3,1-3[8:1],8-6[8:1],1-5[8:1],8-4[8:1],
1,8,,6/3,{2}6h[4:1]/3h[4:1],
{4}8pp2[8:1],{8}8,4pp6[8:1],,8x/4x,1,2,
3,4s8[8:1],,4x<1[4:1],,1,2,3,
4,5-2[8:1]/6-1[8:1],,6x/5x,,3/8,3/8,4/7,
4/7,2h[8:1]/6h[8:1],,7h[8:1]/3h[8:1],,6/2,7/3,2/6,
,4xh[4:1],,{32}8xh,7xh,{16}6xh[16:3],{8},1,,1-3[16:1]/8-6[16:1],
{4},{8},1-5[8:1]/7-2-4[8:1],{4},{8},6/3,
,5h[2:1],6,7,8,1h[8:3],3,4,
5,5,{4}4h[8:1]/2h[8:1],2h[8:1]/5h[8:1],8pp7b[4:1]/7qq8b[4:1],
{8}A7f/D8f/A8f,{4},{8}2x,2x,3,3,4/6,
4/6,5-8[8:1],4-1[8:1],5,{4}4,{8}2/7,2h[8:1]/7h[8:1],
,1v3[8:1],2,1/8v6[8:1],7,8-4[8:1],,3x/8xv2[8:1],
,5x/8x,,1/4,{4}4/1,1<7v5[4:1]*>3v5[4:1],
,{8},6h[4:1],{4}4h[4:1],{8}7h[2:1],3h[8:3],
{4},{8},8xh[4:1],{4}4h[4:1],1h[4:1],
{8}7b,2xh[4:1]/8xh[4:1],{4},{32}A7,D7,A6,D6,{8},A4/E5,A3/B3,
{4}2z6b[8:3],{2},{8}1h[8:5],8h[8:3],
{4},{8},5h[4:1],,3h[4:1],{4}7h[8:1],
{8}8xh[4:1],5h[8:3],,3,3b,{4},{8}4/5,
,{32}1bx,8x,{16}7x,{32}6x,5x,{16}4x,{32}8bx,1x,{16}2x,{32}3x,4x,{16}5x,{8},{4}2x/3x,
{8}8h[16:1]/1h[16:1],1h[16:1]/8h[16:1],2h[16:1]/7h[16:1],6h[16:1]/3h[16:1],,B6/E6/E4/B3/E3/E7,,4b/5b,
,3>8[8:1],{16}3,4,{8}3,7x,6h[8:1]/2h[8:1],,4x-1[8:1],
{16}4,5,{8}4,{16}6x,6x,{8}6x/2x,7/3,2b/1b,6b/4b,7b/1b,
4b/5b,2>5[8:1],{16}2,1,{8}2,7x,8h[8:1]/3h[8:1],,1x-4[8:1],
{16}1,8,{8}1,{16}7x,7x,{8}7x/3x,6/2,1h[8:1]/8h[8:1],,2h[8:3],
8,{24}8,7,6,{8}5,3-8[8:1],2,7-4[8:1],6,2-5[8:1],
3,6-1[8:1],7,6,,8x/4x,1x/5x,1x<6[8:1]/5x>2[8:1],
,1xv6[8:1]/5xv2[8:1],,1b/5b,,3pp1>2[2:1],8,7,
{2}6,{8}1/8,8h[8:1]/1h[8:1],{4},{8}8b/1b,
8<5[8:1],{16}8,1,{8}8,3x,{16}2,1,{8}2,1x-6[8:1],
{16}1,2,{8}1,{16}3x,3x,{8}3/7,4/8,1b/2b,5b/3b,7b/1b,
4b/5b,7>2[8:1],{16}7,6,{8}7,4x,{16}5,6,{8}5,6x-1[8:1],
{16}6,5,{8}6,{16}4x,4x,{8}4/8,3/7,6h[8:1]/4h[8:1],,1h[4:1]/8h[4:1],
{6},{24}2x/7x,6x/3x,{8}4x/5x,2h[8:1]/8h[8:1],,7h[8:1]/1h[8:1],,3h[8:1]/5h[8:1],
,B5,{4}4>1[8:1],4/5<8[8:1],5/4w8[4:1],
{8}4b,{4},{8}B3/E3/A3,1-6[8:1],2,1-4[8:1],8,
{4}1<6[8:1],3/1>4[8:1],7/1s5b[4:1],{8}1b,8,
7,6,B2,5,B1,7,B3,8,
B4,3,B7,4,B8,2,B6,5h[4:1]/4h[4:1],
{4},{8}6h[8:1],3h[8:1],8h[8:1],{4},{8}2p8[8:3]/6p4[8:3],
,2/6,{4},{8},E7/D7,E3/D3,{16}5bx/4bx,5bx/4bx,
5bx/4bx,5bx/4bx,{8},{16}1x,8,1,8,1,8,2x,8,3x,8,{8}4x,
3/7,{16}4x,6,4,6,4,6,4,7x,4,5x,4,7x,{8}4,
2/6,1x-6[8:1],8-3[8:1],1-5[8:1],8-4[8:1],1x,{4}8x,
{8}2/7,{16}8x,1,2,3,4,5,6,7,8,1,8,7,{8}6,
2b/5b,{16}3x,3x,5x,5x,2,2,6,6,1,1,8,8,{8}7,
1/6,{16}8x,8x,7x,7x,1,1,6,6,2,2,5,5,{8}3,
4/5,{16}4,5,5,4,4,6,6,3,3,7,7,2,2,8,
8,1,8,1,7,2,6,3,5,4,6,3,5,4,{8}6b,
Cf,3xh[4:1],,8h[4:1],2h[8:3],{4},{8}6h[4:1],
,1h[4:1],,2h[4:1],,3h[4:1],,7,
,6-8-4[4:1],,4-2-6[4:1],{2},{4}1p4[4:1],
8q5[4:1],,{8}2x-6[8:1],2,
,8-4[8:1],{4}8,{8}5-1[8:1],5,,6-2[8:1],
6,1xpp1b[4:1]*qq1b[4:1],{4}1x,,{8},4/5,
,{32}1bx,8x,{16}7x,{32}6bx,5x,{16}4x,{32}1bx,2x,{16}3x,{32}5bx,6x,7x,8x,{8}1x,,{32}8bx,8x,8x,8x,
{8}8x,{32}1bx,2x,3x,4x,{8}5x,8b/1b,2b/7b,{4},{8}C,
,{32}B7,C,{16}B3,{8},{32}A6,E6,{16}E5,{8},{32}B8,B1,{16}B2,{8},{32}B4,E5,{16}A5,
{8},4x>8[4:1],,8x<4[4:1],,4x>8[4:1],,8xq7[4:1],
,7x<3[4:1],,3xq8[16:5],{16},,,8xV27[16:5],{4},{16}7x-4-6-3[16:7],
{4},{8},{16}3bxqq7[2:1],{4},{16},,,7bx<1[16:11],
{4},,{8},1xp3[2:1]*<4[2:1],{1},{8}6b<1[8:1],
{16}6,5,
{8}6,4x>1[8:1],{16}4,5,{8}4,5x-8[8:1],{16}5,4,{8}5,{16}3x,3x,
{8}3/7,2/6,7b/8b,3b/5b,2b/8b,5b/4b,7<4[8:1],{16}7,8,
{8}7,1x>4[8:1],{16}1,8,{8}1,8x-5[8:1],{16}8,1,{8}8,{16}2x,2x,
{8}2/6,3/7,{4}8h[8:1]/1h[8:1],{8}7h[8:3],1,{24}1,2,3,4,{12},{8}6-1[8:1],
7,6/2-5[8:1],3,2/7-4[8:1],6,7/3-8[8:1],2,
{4}3,{8}1x/5x,8x/4x,{4}8x>3[8:1]/4x<7[8:1],8xv3[8:1]/4xv7[8:1],
8b/4b,{8}6qq8<7[2:1],1,2,3,{4},{8},8/1,
{4}1h[8:1]/8h[8:1],A7/A2,{16}3,6,3,6,
{8}3,{16}4/5,4/5,{8}4/5,B6/E7/E3/B3,{16}2,7,2,7,{8}2,{16}1/8,1/8,
{8}1/8,B6/C/B3,2bx/1bx,1bx/2bx,8bx/7bx,8bx/7bx,{24}8b/7bh[8:1],1,2,3,{12},{24}6,
4,6,4,{12},{24}5b/3bh[8:1],6,7,8,{12},{24}1,7,1,7,{12},{8}7/1,{16}2,6,
{8}2,3/5,4-8[8:1],8-4[8:1],{4}4x,7b,
{8}E6,3pp3[4:1]*qq3[4:1],,3,{4},7xh[8:1],
4xh[8:1]/7xh[8:1],6xh[8:1]/3xh[8:1],4xh[8:1]/5xh[8:1],{8}5x/4x,3/B5,
6h[8:1],B3,8,{16}1,2,{8}3,3,7x/8x,4/5,
8/2,{24}4x,5x,4x,5x,4x,5x,4x,{12},{4}3b>5[1:1]/6b<4[1:1],A6f/D6f/A3f/D4f,
{1},{4}1x/8x,
{8}1pp7[8:3],7,6,5,{4}4,
{32}A5/A1,D6/D2,{16}A6/A2,{8},4/5,2,4/5,7,{4}8<5[8:1]/1p5[8:1],
8q5[8:1]/1>5[8:1],1b/8b,{8}6,7,{4}8/4-8[8:1],
A4,{8}3qq5[8:3],5,6,7,{4}8,
{32}A7/A3,D7/D3,{16}A6/A2,{8},8/1,6,8/1,3,{4}1xh[8:1]/8xh[8:1],
{32}D8/D2,A7/A2,D7/D3,A6/A3,{8},{4}7h[8:1]/5h[8:1],2h[8:1]/4h[8:1],8h[8:1]/6h[8:1],
1h[8:1]/3h[8:1],1h[8:1]/8h[8:1],1/8,4-2[8:1],
4/5-7[8:1],5/4-8[8:1],4/5-1[8:1],5,
2,{8}1v3[8:1]/8v6[8:1],2/7,{4}1/8,2h[8:1]/E6/D6,
7h[8:1]/E4/D4,3h[8:1]/B7/B6,6h[8:1]/B3/B2,{8}5s1[4:1]/4z8[4:1],4/5,
{1}4b/5b,
