&title=rabbit
&artist=john feat. 初音ミク
&first=-0.141
&des=Wuiduari
&lv_5=13
&des_5=Wuiduari
&inote_5=
(110){4},{12},,,,,,,,,6/4,
{24}7,5,,7,{8}5,6/2,{12}5/3,{24}4,2,,4,{4}2,
{12}8/2,{24}7,1,,7,{8}1,6/2,{12}7/1,{24}8,2,,8,{8}2,1,
{12}2/8,{24}3,1,,3,{8}1,2/6,{12}1/7,{24}8,6,,8,{4}6,
{12}4/6,{24}3,5,,3,{8}5,2/6,{12}3/5,{24}4,6,,4,{8}6,5,
{12}3/5,{24}2,4,,2,{8}4,3/7,{12}4/6,{24}5,7,,5,{4}7,
{12}1/7,{24}2,8,,2,{8}8,3/7,{12}2/8,{24}1,7,,1,{8}7,8,
{12}7/1,{24}6,8,,6,{8}8,7/3,{12}8/2,{24}1,3,,1,{4}3,
{12}5/3,{24}6,4,,6,{8}4,7/3,{12}6/4,{24}5,3,,5,{8}3-8[8:1],5/3,
3/5-1[8:1],5,{4}5/2,{12}7,{24}4,4,,6,{12}6v1[8:1],{24}3,3,,,{8}6-4[8:1],
2,2-5[8:1],2,7-3[8:1],7,{24},,,,,1,
{12}1-5[8:1],{24}8,8,,3,{8}3<6[8:1],3,7>2[8:1],7,5,4,
7/4,3,6/2,{24}7,,4x/8x-4[48:5],,,,,,,,,,,,,{12}8,
{24}3,3,,7,{12}7,{24}2,2,,5,{12}5,{24}1,1,,,{4}6-8[8:1],
{8}4-6[8:1],4,2-4[8:1],2,8V24[24:5],8,{24}6,,,,,7,
{12}7>3[4:1],{24}4,4,,,{8}3>6[2:1],3,4,3,2,1,
{4}8,5pp7<6[16:3]/4v2>3[16:3],{2}5/4,
{12}4/3-6[12:1],{24}4x/3x,3x,,,{4}4p5[6:1]/3>6[6:1],3x/4xq5[6:1],4/3-1[12:1],
{24}3x/C,,,,,8,{12}8h[8:1],{24}6,6h[8:1],,4,{12}4h[8:1],{24}2,2h[8:1],,8-4[6:1],{4}8h[8:1],
{8}2-6[8:1],2,7-3[8:1],7,4-1[8:1],4,8<5[12:1],8,
{4}8>3[12:1],8-4[12:1]*-4[12:1],{2}8qq2[6:1],
{16}1-5[8:1],{32}2x,3x,{8}4x,{4}2p5[6:1]/1<6[6:1],1x/2xpp1[6:1],2/8<6[12:1],
{24}8x/C,,,,,1,{12}1h[8:1],{24}3,3h[8:1],,5,{12}5h[8:1],{24}7,7h[8:1],,1-5[8:1],{4}1h[8:1],
{8}6-2[12:1],6,4-1[12:1],4,5-8[12:1],5,4,3,
4/2,5/4,7/5-1[8:1],5/4,5x/2x-6[8:1],3,{4}2/5,
{8}6,8,7,{24}1,,1,{12}8,{24}8,2,,2,{4}1/3,
{12}3,{24}3,1,,1,{12}2,{24}2,8,,8,{8}1,7,{4}8/6,
{8}7,5,6,{24}4,,4,{12}5,{24}5,3,,3,{4}4/2,
{12}2,{24}2,4,,4,{12}3,{24}3,5,,5,{8}4,6,5/7,4x,
{12}3,{24}3,1,,1,{12}2,{24}2,8,,8,{12}1,{24}1,7,,7,{4}8/6,
{12}6,{24}6,8,,8,{12}7,{24}7,1,,1,{8}8,2,{4}1/3,
{8}2,4,3,{24}5,,5,{12}4,{24}4,6,,6,{4}5/7,
{12}7,{24}7,5,,5,{12}6,{24}6,4,,4,{8}5,3,2-5[8:1]/4-7[8:1],1,
{2}2/4-1[8:1],{12}7,{24}4,4,,6,{12}6<1[6:1],{24}3,3,,,{8}6,
2,{12}2-8-4[24:5],{24}8,8,,,{8}7b,7b,{24}E7/B6/A6,,,,,1,
{12}1-5[6:1],{24}8,8,,3,{8}3<6[8:1],3,7>2[8:1],7,5,4,
7/4,3,6/2,{24}7,,4x/8x-4[48:5],,,,,,,,,,,,,{12}8/2,
{24}3,3,,7,{12}7,{24}2,2,,5,{12}5,{24}1,1,,,{4}4/6<8[8:1],
{8}4<6[8:1],4,2>4[8:1],2,8>5[24:5],8,{24}6,,,,,8,
{12}8-6-4[8:1],{24}1,1,,,{8}1V75[8:1],2,{4}2V86[8:1],3,
5/4,5pp6[16:3]/4v1>3[16:3],{2}5/4,
{12}4/3-6[12:1],{24}4x/3x,3x,,,{4}4p6[8:1]/3>8[8:1],3x/4xqq7[3:1],4/3-8[12:1],
{24}3x/C,,,,,8,{12}8h[8:1],{24}7,7h[8:1],,1,{12}1h[8:1],{24}2,2h[8:1],,8-4[6:1],{4}8h[8:1],
{8}2-6[8:1],2,7-3[8:1],7,4-1[8:1],4,7-5[12:1]*-4[12:1],7,
{4}7-1[12:1]*-2[12:1],7w3[8:1],{2}7qq8[6:1],
{16}1-5[6:1],{32}2x,3x,{8}4x,{4}2p5[6:1]/1<6[6:1],1x/2xqq5[3:1],2/8<6[12:1],
{24}8x/C,,,,,1,{12}1h[8:1],{24}3,3h[8:1],,5,{12}5h[8:1],{24}7,7h[8:1],,1-5[8:1],{4}1h[8:1],
{8}6-2[12:1],6,4-1[12:1],4,5-8[12:1],5,4,3,
4/E2/B2/A2/E3/D3/D2,5/4,A7/D8/E8/D7/B7/E7/5-1[8:1],5/4,5x/2x-6[8:1],3,{4}2/5,
{16}5bx<8[8:1]/4bx>1[8:1],{32}8x/1x,7x/2x,{8}6x/3x,{24}D5f/A5/A4,,,,,4x,{4}3x/4xpp8[3:1],4/3-1[12:1],
{24}3x/C,,,,,8,{12}8h[8:1],{24}6,6h[8:1],,4,{12}4h[8:1],{24}2,2h[8:1],,8-4[0.6364##0.2727],{4}8h[8:1],
{8}8/2-6[8:1],3,2/7-3[8:1],8,7/1-4[8:1],2,{4}1-5[8:1]/8-6[8:1],
8-4[12:1]/1-3[12:1],1p4[8:1]/8<5[8:1],8q5<7[24:5]/1>4qq2[24:5],8/1,
{16}8-4[12:1],{32}3x,4x,{8}5x,2-6[6:1],3,4-8[6:1],5,6-2b[12:1],7,
{24},,,,,5,{12}5h[8:1],{24}3,3h[8:1],,1,{12}1h[8:1],{24}7,7h[8:1],,5-1[8:1],{4}5h[8:1],
{8}4>1[8:1],3,5<8[8:1],6,4-1[8:1],3,5v8<7[6:1],6,
5/4-1>3[6:1],2,4/5pp7<6[8:1],7,{4}5/4v1>3[6:1]*s8[6:1],4bx/Cf,
{12}6/4,{24}7,5,,7,{8}5,6/2,{12}5/3,{24}4,2,,4,{4}2,
{12}8/2,{24}7,1,,7,{8}1,6/2,{12}7/1,{24}8,2,,8,{8}2,1,
{12}2/8,{24}3,1,,3,{8}1,2/6,{12}1/7,{24}8,6,,8,{4}6,
{12}4/6,{24}3,5,,3,{8}5,2/6,{12}3/5,{24}4,6,,4,{8}6,5,
{12}3/5,{24}2,4,,2,{8}4,3/7,{12}4/6,{24}5,7,,5,{4}7,
{12}1/7,{24}2,8,,2,{8}8,3/7,{12}2/8,{24}1,7,,1,{8}7,8,
{12}7/1,{24}6,8,,6,{8}8,7/3,{12}8/2,{24}1,3,,1,{4}3,
{12}5/3,{24}6,4,,6,{8}4,7/3,{12}6/4p2[24:5],{24}5,3,,,{4}5x/4x,
E
