&title=Будущее прекрасно
&artist=Нежное Это
&first=0.85
&des=
&des_5=キャップ
&lv_5=13
&inote_5=(142.52){4}1-4[4:1],,{2}8<3[1:1],
{8},1h[4:1],{4},{2}2h[4:1],
8-5[4:1],1>6[4:5],
{8},8h[4:1],{4},{2}7h[4:1],
{16},,,7x/2x,{8}7x/2x,5/3,4,6/4,5,4/2,
3,7/5,6,8/5,7/6,1/4,2/3,8/1,
7/2,5/4,6x/3x,B7/B6/B2/B3,8,{32}B8,B7,B6,B5,{8},5/4,
1,{32}B1,B2,B3,B4,{8},5/4,8h[8:1],7h[8:1],6h[8:1],5h[8:1],
1h[8:1],2h[8:1],{4}3<8[2:7],{2}3,
{4},1b,{2}2h[1:1],
{8},,,,,1,,1,
{4}2,2,{2}1-4[4:1],
{4},{8}B8/E8/B4/E4,1-4[8:1],5-8[8:1],{4},{8}6,
5,4,3,3,{2}1>4[8:1]/5<8[8:1],
{8}7/5,7/5,2/4,2/3,{2}4z8[8:1]/5s1[8:1],
{8}7/5,2/4,{4}1p4[8:1]/8q5[8:1],{8},,,8/5,
7/6,1/4,{4}2/3,{8}8/1,7/2pp3[8:25],{2},{4}8b,
{2}7b,
,{4}6b,5b,
5b,6b,6b,6b,
{16}6b,{4},{16}1,{8}2>5[8:1],6,6,{16}6,8,{8}7<4[8:1],
1,1,{16}1,1,{8}2>5[8:1],6,6,{16}6,8,{8}7<4[8:1],
1,1,{16}1,1,{8}2>5[8:1],6,6,{16}6,8,{8}7<4[8:1],
1,1,{16}1,1,{8}2>5[8:1],6,6,{16}6,8,{8}7<4[8:1],
1,1,{4}1,{64}8b,7,{32}6,{48},{96}7b,6,{192},{64}5,{24},{192}6b,5,{96},{16}4,{8},{16}6,4,
5,3,{8}5/4,{4}6b/3b,{64}1b,2,{32}3,{48},{96}2b,3,{192},{64}4,{24},{192}3b,4,{96},{16}5,{8},{16}3,5,
4,6,{8}4/5,3b/6b,,{2}1pp3[2:1]/5pp6[2:1],
,4v2[2:1]/8v6[2:1],
,8h[1:1],
{1}1h[2:1],
{4}6>3[8:1]/3<6[8:1],6b/3b,{8}2,1-5[8:1],7,8-4[8:1],
2,1-5[8:1],7,8b/1b,3,4/5,6/5,{16}8,7,
8,7,{8}8,6/1,2/5,8/3,7/4,8/3,{16}6,5,
{8},{16}2,1,{8},7/4,7b/3b,6b/2b,8b/4b,5b/1b,
6b/2b,6b/2b,7b/3b,7b/3b,{4}1p3[8:1],7q5[8:1],
{2},{4}1p4[8:1],3q1[8:1],
{2},2-7[2:1]/7qq5-7[2:1],
,5-8>1[2:1]/4-1<8[2:1],
{8},,,7x/5x,1h[8:1],7h[8:1],5h[8:1],{16}3,3,
{8}4h[8:1],6h[8:1],8h[8:1],{16}2,2,{8}1h[8:1],7h[8:1],5h[8:1],{16}3,3,
{8}4h[8:1],6h[8:1],8h[8:1],{16}2,2,{8}7/5,2/4,8/1,{16}4,5,
{8}8/6,1/3,5/4,{16}1,8,{8}2q3[8:1],7p6[8:1],{4},{8}B8/B1,
C,{4}E5,{64}1b,2,{32}3,{48},{96}2b,3,{192},{64}4,{24},{192}3b,4,{96},{16}5,{8},{16}3,5,
4,6,{8}4/5,{4}3b/6b,{64}1b,2,{32}3,{48},{96}2b,3,{192},{64}4,{24},{192}3b,4,{96},{16}5,{8},{16}3,5,
4,6,{8}4/5,{4}3b/6b,{64}8b,7,{32}6,{48},{96}7b,6,{192},{64}5,{24},{192}6b,5,{96},{16}4,{8},{16}6,4,
5,3,{8}5/4,{4}6b/3b,{64}8b,7,{32}6,{48},{96}7b,6,{192},{64}5,{24},{192}6b,5,{96},{16}4,{8},{16}6,4,
5,3,{8}5/4,{4}6b/3b,{2}7q4[2:1]/2p5[2:1],
,5qq5pp5[2:1],
,3q8[2:1]/6p1[2:1],
,3qq2-5[2:1]/6pp7-4[2:1],
,4w8[2:1],
,5w1[2:1],
,{4}3qq2[2:1],6pp7[2:1],
{2},{4}5p6[2:1],4q3[8:3],
{2},{8}6b/3b,6b/3b,{4}5/4,
{8}7b/2b,7b/2b,{16}7b/2b,1,2,1,{8}B8/B4,B7/B3,{4}B6/B2,
{8}B8/B1,B7/B2,{16}B6/B3,B4,B5,B4,{8}8b/1b,8b/1b,{4}5/4,
{8}7b/2b,6b/3b,{16}5b/4b,5,4,5,{4}1s5[8:1],1<6[8:1],
1-4[8:1],1b,{8}7b/2b,7b/2b,{4}5/4,
{8}7b/2b,6b/3b,{16}5b/4b,1,8,1,{8}B3,B4,B5,B8,
B7,{16}B6,B4,B5,B4,{8},{4}1-4[8:1],8-5[8:1],
7-2[8:1],3-6[8:1],1p5[8:1],4>2[8:1],
4,6bx/3bx,{8}7>2[8:1],2qq7[8:1],,,,6/3,
6/3,6/3,6q6[8:1],2q2[8:1],,,,6/3,
{4}6/3,1pp1[8:1],8qq8[8:1],
1pp1[8:1],8qq8[8:1],1-4[8:1],8-5[8:1],
1-4[8:1],8/1,{2}2pp4[4:3]/6v8[4:3],
{4},,,7/3,
{8}6/2,6/2,{4}6/2,{16}8,7,8,7,{8}8,2/4,
{4}2/4,7/2,{16}2,1,2,1,{8}2,6/5,
{4}7/4,{8}6b/3b,5/4,7/2,7/2,7/2,{16}1,8,
1,8,{8}1,6/3,6/3,4-7[8:1],4-8[8:1],{4}4-1[8:1],
,{8}6/2,7/3,{16}6,5,6,5,6,5,6,5,
3,4,3,4,3,4,3,4,7,8,7,8,7,8,7,8,
2,1,2,1,2,1,2,1,{32}5b/1,2,3,4,5,6,7,8,1/5b,2,3,4,5,6,7,8,
1/5b,2,3,4,5,6,7,8,{4}1,{2}7q4[4:1]/2p5[4:1],
{4},6b/3b,{32}5b/1,2,3,4,5,6,7,8,1/5b,2,3,4,5,6,7,8,
1/5b,2,3,4,5,6,7,8,{4}1,{2}8V26[2:1]/7-3-5[2:1],
,{32}4b/8,7,6,5,4,3,2,1,8/4b,7,6,5,4,3,2,1,
8/4b,7,6,5,4,3,2,1,{4}8,{2}8p4[2:1]/1q5[2:1],
,{32}4b/8,7,6,5,4,3,2,1,8/4b,7,6,5,4,3,2,1,
8/4b,7,6,5,4,3,2,1,{4}8,{16}8,1-5[2:1],,,,,,7,
{2}8-4[4:1],{8}6,{16}8,8,8,8,{8}8,
{16}1,1,1,1,1,1,1,1-5[8:5],
E
