&title=VOID
&artist=Ichika Nito
&first=0.02
&des_1=V.
&des_2=V.
&des_3=V.
&des_4=V.
&des_5=V.
&lv_5=13+
&des_6=V.
&des_7=V.
&des=V.
&inote_5=(125)
{4}
,,,,
{16}
3h[8:1],,,2-4[8:1],,,,,
5,,,,,,,,
{16}
6h[8:1],,,5-8[8:1],,,,,
3,,,,,,,,
{16}
1h[8:1],,,3-6[8:1],,,,,
5,,,,,,,,
{16}
7h[8:1],,,5-1[8:1],,,,,
3,,,,,,,,
{16}
2h[8:1],,4,3-1[8:1],,,,,
5,,,5,,,,,
{16}
7h[8:1],,5,8-5[8:1],,,,,
4,,,4,,,,,
{16}
4h[8:1],,5,3-6[8:1],,,,,
7,,,7,,,,,
{16}
5-2[8:1],,6,,8-5[8:1],,1,,
8,,D4,,E3,,D2,,
{16}
5h[8:1],,2,6,{32}B3,E4,{16},7,,
5h[8:1],,2,6,{32}B3,E4,{16},7,,
{16}
3h[8:1],,6,2,{32}B5,E5,{16},2,,
3h[8:1],,6,2,{32}B5,E5,{16},2,,
{16}
5h[8:1],,2,6,{32}B3,E4,{16},7,,
5h[8:1],,2,6,{32}B3,E4,{16},7,,
{16}
3h[8:1],,6,2,{32}B5,E5,{16},2,,
3h[8:1],,6,2,{32}B5,E5,{16},2,2,
{16}
6,3,5,2,4,3,7,5-8[12:1],
6,,4,5,,,3,,
{16}
5p1[12:1]/4,,6,6,,,,,
3q7[12:1]/5,,2,2,,,,,
{16}
8<6[12:1]/4,,,13,,,2,,
3>1[12:1]/5,,,46,,,7,,
{16}
6-4[12:1],,7,7,2q5[8:3],,8p5[4:1],,
1,,,,,,,,
{24}
C,,,
{16}
,,,,,,,,,,,,,,
{16}
4-1[12:1],,4,,,6<4[16:5],,2h[16:1],,,,,,,,,
{16}
5,,6,,B7`2,,3,,6,,7,,B8`3,,4,,
{16}
7h[16:3]/5<3[16:5],,,,,,,,{32}C,E1,{16},,,,,,,
{16}
6p4[16:5]`3h[16:3],,,,,,,,{32}2,1qq3[4:1],{16},,,,,,,
{16}
5xh[96:1],,6,6,,7h[8:1],,5,46,,3,3,,2h[8:1],,4,
{16}
5<8[8:1]/3,,,6h[16:3],,,,,5>2[8:1],,,4h[16:3],,,,,
{16}
{48}1q4[16:5],8,7p4[48:13],{16},,,,,,,,,,,C,,,,
{16}
7b/1b,,2,24,,46,,2h[8:1]/4,,6,5,6,3,4,35,,
{16}
28,,7,75,,53,,7h[8:1]/5,,3,4,2,7,5,64,,
{16}
35,,2,12,,86,,7/1h[8:1],,8,2,1,3,5,46,,
{16}
3,3,5,2h[8:1],,4h[8:1],,6,4v6[8:1],8V24b[12:1],4,8,,,,,
{16}
8b/2b,,7,75,,43,,7h[8:1]/5,,3,4,2,6,5,74,,
{16}
18,,2,24,,56,,2h[8:1]/4,,7,5,6,3,1,28,,
{16}
54,,7,87,,45,,1h[8:1]/2,,3,5,4,7,8,16,,
{16}
2-5[12:1]/7,,3,,2q5[4:1]/8p5[4:1],,7,,8b/2b,,,,,,,,
{16}
C/8<1[4:7],,,,,,,,,,,,,,,,
{16}
{32}E7,B6,{16}B5,,,,,,,,,,,,,,,
{16}
E1,,,,E8,,,,E7,,,,E6,,,,
{16}
7`E4,,,,6`E3,,,,5`E2,,,,4`E1,,,,
{16}
3-6[4:1],,,3,,,,,8-5[6:1],,,,4,,,,
{16}
2-7[4:1],,,2,,,,,5-8[6:1],,,,1,,,,
{16}
3-6[4:1],,,3,,,,,1-4[6:1],,,,4,,,,
{16}
2-7[4:1],,,2,,,,,4h[4:1],,,,5,,,,
{16}
4,,5,4,,5,5,4,6,,5,6,,4,4,5,
{16}
3,,4,3,,5,5,4,6,,5,6,,3,5,4,
{16}
5,5,4,6,,4,5,4,6,6,5,6,,5,5,6,
{16}
3,3,4,3,,4,4,3,5,5,4,6,,5,{32}4,6,4,,
{16}
7,8x/2x,,6x/1x,,{32}3,7,{16}3,6,45,3,,24,,5/7x,6,,
{16}
43,2,2,43,,5,4,6,{24}5,7,5,7,5,7,5,7,5,{16}8,,
{16}
{32}3,4,3,,,,6,5,6,,,,{32}4,5,{16}4,6,5,4,7x/3x,,8,8,1,
{16}
7,7,6,6,5,5,4,4,3,3,2,2,1-5[4:2]/8,18,18,18,
{16}
1h[8:5],,,,,,,,,,,6,4`5,36,,,
{16}
7b/1b,,2,24,,56,,2h[8:1]/4,,7,5,6,3,1,2,7,
{16}
54,,7,87,,45,,1h[8:1]/2,,3,5,4,7,8,6,2,
{16}
5,5,4,7h[8:1],,5h[8:1],,3,5qq3[8:1],1<5b[12:1],5,1,,,,,
{16}
1b/7b,,2,24,,57,,2h[8:1]/4,,6,5,7,3,4,2,7,
{16}
81,,7,75,,42,,7h[8:1]/5,,2,4,3,6,8,7,2,
{16}
45,,2,12,,54,,8h[8:1]/7,,6,4,5,2,1,3,8,
{16}
7-4[12:1]/2,,6,,7p4[4:1]/1q4[4:1],,2,,1b/7b,,,,,,,,
{16}
{48}64,37,2-5b[12:1]/8-5b[12:1],{16},,8x/2x,,,,,1bw5b[12:1],,,,,,,,
{16}
2b/8b,,6,7<3[12:1]/5,,24,,71,,1,2,1,8,1,7,1,
{16}
26,,3,1>5[12:1]/2,,64,,17,,7,6,7,8,7,1,7,
{16}
62,2,4,4h[8:1],,5,4,2,4V68[8:1],1V35b[12:1],4,1,,,,,
{16}
8b/3b,,6,1<5[12:1]/6,,34,,12,,3,4,3,2,3,1,3,
{16}
28,,2,2>6[12:1]/5,,78,,24,,8,7,8,1,8,2,8,
{16}
13,,7,8<4[12:1]/7,,35,,81,,2,3,2,1,2,8,2,
{16}
2-5[12:1]/7,,3,,2q5b[4:1]/8p5b[4:1],,7,,8b/2b,,,,,,,,
{16}
{48}E5/6,7,8h[24:17],{16},,,,,,,{48}2,3,4h[24:5],{16},,,,,,,
{16}
{48}E3f/8bx,7,6,5,,,,,,,,,E7f/1bx,2<7b[16:1],3,4,,,,,,,,,E1f/6bx,5x,4x,3x,,,{24}B6,E5,B3,{16}A7/B7/B2/A2,,,,
{1}
,,
E
