&title=バイバイ YESTERDAY
&artist=3年E組 うた担
&first=0
&des=草树 -黄金往日种种-
&lv_5=13+
&inote_5=(180)
{1},
{8},,,,,,,3,
{8}2h[4:1]/4,,1,3h[4:1]/8,,1,4h[4:1]/7,,
{8}6,6/5>1[4:1],,57,,8,,6,
{8}7h[4:1]/5,,8,6h[4:1]/1,,8,5h[4:1]/2,,
{8}3,4h[4:1]/2,,3,{16}2,4,3,4,4h[8:1],,,,
{8},7,75,,6,4/6-8[8:1],,5,
{8},3,3-1[8:1]/4,,5,6,47,,
{8}8,7,6h[4:1]/5,,1,2,3h[4:1]/4-6[8:1],,
{8}4>1[8:1],,7,,4,3,{16}25,,3,3,
{16}5-7[8:1],,,,4,,,,3,,3-5[8:1]/8,,,,7h[4:1],,
{16},,6,,6>3[8:1],,,,8,,7,,26,,,,
{16}1-5[8:1],,,,6,,,,8-4[8:1],,8,,3,,,,
{16}25,,6,,7<3[4:1]/4,,,,2,,2,,1,,4,4,
{8}2-5[8:1],,26,,6,5,6,7-4[8:1]/4,
{8},3,2-8[8:1],,2-5[8:1]/6,,7,,
{8}1,2,3h[4:1]/5,,8,7,6h[4:1]/4-2[8:1],,
{8}4<8[4:1],,1,,3,4,{16}57,,6,6,
{8}5>2[8:1],,8,,7,7-3[8:1],,1h[4:1]/7,
{8},4,4-8[8:1],,2-5[8:1],,26,,
{8}6-8[8:1],5,4,,3-1[8:1],4,5,,
{8}47,5,6,2/5,25,3,48,,
{8}7b<3[4:1]/5h[4:1],,,2,1-5[8:1],,6,,7h[8:1],6,5,6h[8:1],5,4,3/5,,
{8}2>6[4:1]/8h[4:1],,,7,7-4[8:1],,8,,3-1[8:1],3,4,,5-7[8:1],5,3,,
{8}4qq5[16:5]/8h[4:1],,,7,6<1[8:1],,4,,2h[8:1],3,4,3h[8:1],4,5,46,,
{8}7/5-2[8:1],,6,6,5-8[8:1]/3,,4>1[4:1],,1<6[4:1],,5,,4,5,36,,
{8}1b>6[8:3]/4h[4:1],,,7,8-4[8:1],,3,,25,6,5,47,3,4,25,,
{8}8<3[8:3]/4h[4:1],,,2,1-5[8:1],,6,,4/6-8[8:1],,5,,3-1[8:1],2,4,,
{8}7h[4:1]/8,,6,6,5-1[8:1],,57,,2h[4:1]/8,,3,3,4-8[8:1],,24,,
{8}1-5[8:1],,17,7,8-4[8:1],,2<3[32:13]/8,,6,,8,,1b,,,,
{8}2b-6[8:1]/1b-6[8:1],,1/2<3[8:2],,7,,8,8-3[8:1]*-4[8:1],
{8},8,,2,35,4,57,6,
{8}6-1[8:1]/5-1[8:1],,6b/5b,,28,3-7[8:1]/7-4[8:1],,37,
{8},8,16,2,3-8[8:1]/4-8[8:1],25,34,,
{8}1b/6b,7,4/6,2,3/5<3[4:1],,8,2,
{8}4-8[8:1]*-7[8:1],,4,,16,2,38,7,
{8}7-4[8:1]/8-4[8:1],16,78,,2-5[8:1]/1-5[8:1],38,12,,
{8}47,6,35,4,5-1[8:1]*-2[8:1]/7,,5b,,
{8}7b-3[8:1]/8b-3[8:1],,8/7>6[8:2],,2,,1,1-6[8:1]*-5[8:1],
{8},1,,7,64,5,42,3,
{8}3-8[8:1]/4-8[8:1],,3b/4b,,71,6-2[8:1]/2-5[8:1],,62,
{8},1,38,7,6-1[8:1]/5-1[8:1],47,56,,
{8}3b>8[8:1]/8b,3,7,6,5-1[8:1],5,2,3,
{8}4-8[8:1],7-4[8:1],4,7,,1,2-5[8:1]/5-1[8:1],6,
{8}2<4[4:1]/5,,8b,,8,7,46,3,
{8}2-5[8:1]/1-5[8:1],3/8,2b<4[16:3]/1b,,8b-3[8:1]*-4[8:1],,,,
{8}2b-5[8:1]/6b-2[8:1],,2b/6b>8[4:1],,3,,4,4-7[8:1]*-8[8:1],
{8},4,,1,25,3,4-8[8:1]/7-4[8:1],8,
{8}7b>5[4:1]/4b,,1b,,1,2-5[8:1]*-6[8:1],,2b,
{8},8,37,4,5-1[8:1]/6-1[8:1],47,5b/6b,,
{8}3b/8b,3-8[8:1]/8-4[8:1],,38,,5,63,7,
{8}5bV31[4:1]/8,,8,6,4bV68[4:1],,1,3,
{8}5b,5,47,47,36,36,2-5[8:1]/5-1[8:1],,
{8}2b<4[4:1]/5b,,8b,,8,{16}3,4,3,4,3,4,
{8}2b/5,,4h[8:1]/8,6,3/5,2,3/4-8[8:1],,
{8}24,3-6[8:1],,7-4[8:1]/3,,37,,2,
{8}1b/6,,1/5h[8:1],3,46,7,5-1[8:1]/6,,
{8}57,6-3[8:1],,2-5[8:1]/6,,2,7bp2[4:5],2bq7[8:9]/7,
{1},
{8},,,,1b>5[32:3]*<5[32:3],{384}4b-8[8:1],{8}6b-2[8:1],,,E
