&title=Kaleidoscope
&artist=Lycoris in the parterre
&first=0
&des=Kalejdoscope
&lv_5=14
&inote_5=(150)
{1},
{48}7,8/6,1/5,2/4,3,,,,,,,,{8},,,2/6,,{16},3-8[32:3]/7-4[32:3],
{16},3/7,,,,,,,,,,,,,,,
{16}1/5,,,,,,,,2/6,,3/7,,,8z4[16:4]/4,,8/4,
{16},,,,,,,3h[16:4]/5h[16:4],,,,,,,,,
{16}5/3,,,,,,,,,,6/2,,,,,3v8[32:3]/7v4[32:3],
{16},7/3,,,,,,,,,,,,,,,
{16}1/5,,,,,,,,2/6,,3/7,,,8p4[4:1]*q4[4:1]/4,,8/4,
{16},,,,,,,2h[16:4]/6h[16:4],,,,,,,,,
{16}2/6,,3,4,,4,3,,2,,2,,4,3,,5,
{16}4,,6,6,5,5,,4/7,4/7,,3,,3,,2/5,2/5,
{16},3,6,,5bpp6[16:36]/4bqq3[16:36],,,,,,,,,,,,
{1},,
{16},,,,7-3[8:1],,,,,,,,1-4[8:1]*-6[8:1],,,,
{16},,,,5,4,5,3h[8:1],,4,3V51[16:4],,,,,,
{16},,,,8,1,8,1,,7,8,7V53[16:4],,,,,
{16},,,,2,2,1,3h[8:1],,8,2-6[16:4],,,,,,
{16},,,,8^5[32:3]/5^2[32:3],,,,,,,,1^4[32:3]/4^7[32:3],,,,
{16},,,,6,4,5,3h[8:1],,5,5,2,2,4,3,4,
{16}2,4,3,4,2,2,1,2h[8:1],,8,1,8,,2,1,2,
{16}8,1,7,8,7,7,1,8h[8:1],,1,1,7,8,7,1,6,
{16}2,5,3,4bV61[16:3],,,3,,3,,,2bq5[16:4],,,8,,
{16},7,,,6,4,6,5h[8:1],,7,7,4,4,6,5,6,
{16}4,6,5,6,4,4,5,3h[8:1],,5,4,5,,3,4,3,
{16}5,4,6,5,6,6,4,7h[8:1],,6,7,,4,5,2,3,
{16}1,8,6,7bp4[4:1],,,1,,1,,,2bw6[16:3],,,,,
{16},,,,5/7,,6,,5,,4,,5/4,,4,,
{16}3,,2,,4/2,,3,5,4,,5/4,,6/5,,7/4,,
{16}6/5,,6,4,5,,4,,3,,2,,2/4,,3,,
{16}4,,5,,6/4,,4,5,3,,4,,5/3,,5/3,,
{16}2/6,,,,8-4[8:1]/4,,8/4,,4,,3,,2-6[8:1],,2,,
{16}1,,8,,7-4[32:3],,6,5,7,,3,,2/4,,2/4,,
{16}1/5,,2,4,3^8[8:1],,3,,4,,5,,6^3[8:1],,6,,
{16}7,,8,,1/2,,2,1,2,,3/8,,5/6,,5/6,,
{16}4/7,,,,6h[4:1],,5h[4:1],,,,6,,4h[4:1],,5h[4:1],,
{16},,4,,3/5,,3,4,3,,3,,2/5,,2/5,,
{16}1h[16:4],,,,7h[4:1],,8h[4:1],,,,7,,1h[4:1],,8h[4:1],,
{16},,1,,2/7,,8,8,1,,8,,1/7,,1/7,,
{16}6h[4:1]/2,,,,2h[8:1],,4h[8:1],,3h[8:1],,5h[8:1],,4h[8:1],,6h[8:1],,
{16}5h[8:1],,8h[8:1],,4,7,3,6,2,5,1,6,2-6[32:3],8,4,6,
{16}2b,,,,4/8,,,,,,,,,,1/5,,
{16},,,2-5[32:3]/6-1[32:3],,2/6,,,,,,,,,8/4,,
{16},,,,3v8[32:3]/7v4[32:3],,,,,,,,2/6,,3/7,,
{16},8z4[16:4]/4,,8/4,,,,,,,,3h[4:1]/5h[4:1],,,,,
{16},,,,5/1,,,,,,,,,,8/4,,
{16},,,7-4[32:3]/3-8[32:3],,7/3,,,,,,,,,1/5,,
{16},,,,6^1[32:3]/2^5[32:3],,,,,,,,8/4,,3/7,,
{16},4/6,,3/5h[8:1],,2,4,2,4,3,5,4h[8:1],,7,5,7,
{16}5,6,4,5h[8:1],,1,5,1,5,2,6,3h[8:1],,8,3,8,
{16}3,7,2,6h[8:1],,1,1,5,5,3,3,8h[8:1],,2,6,3,
{16}5,4/5,,4/2,,4/8,4/8,,4/6,4/6,,1/5,1b>5[16:4]/5b,,,,
{16}5,6,7,8,1b-5[8:1],,,,1/3,,2,,1/6v1[8:1],,7,,
{16}2-5[32:3]/6,,3,,8/2,,{24}8,7,6,{16}4/5,,3,,4/2h[4:1],,,,
{16}6,6,4,7,5-1[8:1],,,,5/4,,3,,8/2^5[8:1],,1,,
{16}8-4[32:3]/2,,7,,8/1,,{24}1,2,3,{16}4/5,,6,,5h[4:1]/7,,,,
{16}1,8/4,7/3,6/2,1/5h[16:4],,,,1,,3,,4/6,,7,,
{16}5,,5/6,,4h[8:1],,{24}5,4,6,{16}5p1[8:1],,7,,5/6,,,,
{16}2-6[32:3]/8,,7,,2b/6,,7,,5/8-4[32:3],,4,4,8b,,2,,
{16}3/8^5[8:1]*-5[8:1],,1,1,8b-4[8:1],,,,8b^3[8:1]*-3[8:1],,,,8b<4[16:4],,,,
{16}4,3,2,1,8b-4[8:1],,1,,8/6,,7,,8/3v8[8:1],,2,2,
{16}7-4[32:3],,6,,1/7,,{24}1,2,3,{16}5/4,,6,,5/7h[4:1],,4,,
{16}3,3,5,2,4-8[8:1],,3,,4/5,,6,,1/7^4[8:1],,8,8,
{16}1-5[32:3]/7,,2,,1b/8,,{24}8,7,6,{16}5/4b,,3,,4h[16:4]/2b,,,,
{16}8,1/5,2/6,3/7,8/4h[16:2],,,,4/8,,6,,3/5,,2,2,
{16}4,,3/4,,5h[16:2],,{24}4,5,3,{16}4q8[8:1],,2,,3/4,,,,
{16}7-3[32:3]/1,
,2,,7b/3,,2,,4/1-5[32:3],,5,5,1b,,7,,
{16}6/1^4[8:1],,8,8,1b-6[8:1],,7,,1b-5[8:1],,5,,1bw5[8:1],,,,
{16}1b,,,,7b-3[32:3],,1,,7,,2,2,8b-4[32:3],,4,,
{16}8,,1,1,8-6[32:3],,8-4[32:3],,8-5[32:3],,8-3[32:3],,8-4[32:3],,8,,
{16}8<1[16:10]*<1[16:10],,,,1b,,,,,,,,,,8,,
{16},,,3-8[32:3]/7-4[32:3],,3/7,,,,,,,,,1/5,,
{16},,,,4/8,,,,,,,,3/7,,2/6,,
{16},1s5[4:1]/5,,1/5,,,,,,,,4h[4:1]/6h[4:1],,,,,
{16},,,,4/6,,,,,,,,,,3/7,,
{16},,,6V85[32:6]/2V41[32:6],,6/2,,,,,,,,,2/6,,
{16},,,,4/8,,,,,,,,6/4,,5/3,,
{16},4,,5/3h[8:1],,6,4,6,4,7,3,8h[8:1],,1,7,1,
{16}7,2,6,3h[8:1],,5,4,6,3,7,2,8h[8:1],,1,8,2,
{16}7,3,6,5/4h[16:8],,3,2,1,8,7,6,5h[16:4],,7,8,1-5[12:1]b,
{16}2/6,3/7,4/8,1/5,,3,3h[16:2],,7,7h[16:2],,1,{32}1bx,8/2/E1f/E2f,7/3/E3f/E8f,6/4/E4f/E7f,5/E5f/E6f,,,,,,,,,,,,
{16},,,,,,,,E
