&title=VERTeX (rintaro soma deconstructed remix)
&artist=hiro|remixed by rintaro soma
&first=0
&des_5=FeS LeDan
&bpm=158
&chart_type=00
&clock_count=4
&lv_5=14+
&inote_5=(158)
{1},,
{4}8b/4h[2:7],8,,,
{1}8h[2:1],
{4}7,7,,,
{4}7h[2:1],,,35,
{4}1/6h[2:5],1,,,
{1}1h[2:1],
{4}2,2,3,46,
{8}2h[16:3]/8h[16:3],,28,1,28,37,{16}1-4[8:1],1,1,1,
{16}1b,,,5h[16:1],,,62,,3,7,3,7,4,6,4,6,
{16}3,5,4,6,3,7,2-5[8:1],,8-5[8:1]/3,,27,,8b,,,4h[16:1],
{16},,37,,2,6,2,6,2,4,3,5,4,6,5,7,
{16}4-7[8:1],8,3,,1-5[8:1],,,,1b,,,6h[16:1],,,37,,
{16}4,5,4,5,3,6,3,6,2,8,4,6,1,7,3,,
{8}45,27,3h[16:1]/6h[16:1],3h[16:1]/6h[16:1],2h[16:1]/7h[16:1],2h[16:1]/7h[16:1],{16}1,8,1,8,
{16}1,2,3,4,5,6,7,8,15,,2b,6b,4b-8[8:1],7b,1b,,
{16}4,,2,3,4-8[8:1]/7,,3,2,14,,1,2,3-8[8:1]/7,,6,,
{16}7,6,5,,1,2,36,,5-1[8:1],,46,,5/7,,7,6,
{16}5-1[8:1]/2,,6,7,85,,8,7,6-1[8:1]/2,,3,,2,3,4,,
{16}8,7,63,,4-8[8:1],,35,,4/2,,2,3,4-8[8:1]/7,,3,2,
{16}14,,1,2,3>8[8:1]/7,,6,,{16}7,6,5,,1,2,36,,
{16}4-8[8:1]/5-1[8:1],,36,,45,,,,2-5[8:1]/7-4[8:1],,36,,27,,,,
{16}36,,36,,{128}2h[128:1],5h[128:1],,,,,,,,,,,,,,,7h[128:1],4h[128:1],,,,,,,,,,,,,,,{16}8,2,7,1,5,3,6,4,
{32}5,4,3,2,1,8,7,6,{2}5/2h[4:5],,,
{12}3/6,36,36,
{12}3/6,27,18,{8}1-4[8:1]/8-5[8:1],,1b/8b,,{16}3h[8:1],,5,3,
{16}6h[8:1],,4,6,2h[8:1],,6,2,7h[8:1],,1,1,7-3[8:1],,6,3,
{16}7,,,,4h[8:1],,6-3[8:1],3,7,,63,,2h[8:1],,8-5[8:1],3,
{16}7,,82,,3,3,6,6,1-4[8:1]*-6[8:1],,28,,1,,,,
{16}3h[8:1]/7h[8:1],,,,26,,3,4,2,,7,,73,,6,5,
{16}7,,2,,26,,3,5,1,,7,,73,,6,4,
{16}8,,27,,{12}3,5,4,6,4,5,2,4,1,
{12}7,5,8,2,3h[12:4]/6h[12:4],,,,,{8}3-7[8:1]/6-2[8:1],,
{8}3/6,,{24}4,,6,,6,,3,,6,,6,,2,,7,,7,,
{24}1-5[8:1],,8,,8,,{2}1bp6[8:4],{4},
{4},{24}5,,3,,3,,6,,3,,3,,7,,2,,2,,
{24}8-5[8:1]*-3[8:1],,1,,1,,{2}8bp5[8:4],{4},
{8}2b,,{24}4,,6,,6,,3,,6,,6,,2,,7,,7,,
{24}1w5[8:1],,8,,8,,{2}1bqq5[8:5]*pp5[8:5],{4},
{12},,,6,3,3,6,2,2,7,1,1,
{12}7,1,1,{24}8,7,6,1h[8:1],,,8-4[8:1],7,6,2h[8:1],,,{4}8w4[8:1],
{4}8b,{16}2,5,3,6,{24}4-8[8:1],3,2,7,6,5,{16}43,,2,,
{16}1-4[8:1]/7,,26,,1-6[8:1],7,7,,1>4[8:1],5,5,,1-5[8:1],,6,7,
{16}81,,7b,,7,4,6,3,{16}5,6,7,8,4,5,6,7,
{16}8-5[8:1]/4,,26,,8-3[8:1],,2,2,8<5[8:1],,4,4,8w4[8:1],,2,,
{4}8b,{16}7,4,6,3,{24}5-1[8:1],6,7,2,3,4,{16}56,,7,,
{16}8-5[8:1]/2,,73,,8-3[8:1],2,2,,8<5[8:1],4,4,,8-4[8:1],,3,2,
{16}18,,2b,,2,5,3,6,4,5,4,5,3,,26,,
{16}15,,48,,1,5,2,6,3,7,4,8,{32}5,6,7,8,1,2,3,4,
{32}7,8,1,2,3,4,5,6,{2}7>7[1:2],{4},
{1},
{4},2<2[1:2],2,,
{1},
{4},6<6[1:2],6,,
{1},
{4},2<2[2:3],2,,
{1},
{16},,,,5-8[8:1],,5,,53,,2,3,4-1[8:1],,4,,
{16}46,,7,6,5-1[8:1],,5,,52,,2,3,{12}4-8[8:1]/8-4[8:1],,,
{16}48,,,,5-8[8:1],,5,,54,,4,3,2/7-4[8:1],,7,,
{16}71,,1,2,3/5-1[8:1],,5,,52,,2,3,4v2[8:1]/8v6[8:1],,,,
{16}48,,,,3,3,5,5,4,4,6,6,2,5,4,7,
{16}3h[4:1],,,,7,5,6,2,4,3,8,6,7,1,3,2,
{16}8b,,,,
{24}2,4,3,4,,,7,5,6,5,,,{32}2,3,4,5,6,7,8,1,
{32}2,3,4,5,6,7,8,1,{8}2h[4:6]/6h[4:5],,,,,,
{2},{4},{16}6,6,2,2,
{4}3h[8:1]/5h[8:1],{16}2v4[8:1],,4-1[8:1],,{24}5,6,7,8>3[8:1],,,{16}7,,8,,
{16}7,6,5-1[8:1],,4,,3-8[8:1]/5,,4,,37,6,5,,{16}4/8-4[8:1],15,
{16}26,37,48,,3V51[4:1],2,1,,6v3[8:1]/3,7,8,,{12}6,,,
{16}2,,{32}1w5[8:1],2,3,4,5,6,7,8,{16}1,,,,37,,6-2[8:1]/2,,2-6[8:1]/6,,
{16}62,,,,1q5[8:1],,5v2[8:1],,8,,8,7,6V48[4:1],,1,,
{16}26,,3,2,1-4[8:1],,1,,1-6[8:1]/8,,8,,1/2,,2h[4:1],,
{16},,6,,7-3[8:1],,7,,8-4[8:1],,8,,1-5[8:1],,1,,
{16}2,,2,,6,4,5,3,6,4,5,3,6,2,7,1,
{16}8,,81,,7v5[8:1],,5-8[8:1],,{24}4,3,2,1<6[8:1],,,{16}2,,1,,
{16}2,3,4-8[8:1],,5,,6-1[8:1]/4,,5,,62,3,4,,{16}5/1-5[8:1],84,
{16}73,62,51,,6V48[4:1],7,8,,36,2,1,,3,,37,,
{16}48,37,26,15,{12}48,1b/5h[128:1],,7b/3h[128:1],,2h[128:1]/5b,,6h[128:1]/3b,,
{12}4b-8[8:1]/5,,4,{16}6-2[8:1],,6,,1-5[8:1],,1,,4-8[8:1],,4,,
{16}3-1[8:1],,3,,7-4[8:1]/3,,7,,2-5[8:1]/7,,2,,8-4[8:1]/2,7,6,,
{16}83,,3-7[8:1],,3,2,1-5[8:1],,1,2,3-7[8:1],,3,2,1-5[8:1],,
{16}1,2,3,,3h[16:1],,2h[16:1]/6h[16:1],,1h[16:1]/5h[16:1],,8/4,,{12}2,4,6,
{12}8,4,6,{16}3,,3b/5b,,2h[8:1]/6h[8:3],,,,,,1,,
{16}2,3,2,3,2,4,2,4,3,5,3,5,4,6,4,6,
{24}4,3,2,15,,,{16}2,,{24}34,5,6,{16}2,,72,,7,6,7,6,
{16}7,5,7,5,6,4,6,4,5,3,5,3,{24}5,6,7,84,,,
{16}3h[8:3]/6h[16:1],,,6,,,7,,6,6,5,5,4,4,3,3,
{16}5,3,7,1,6,2,4h[4:1],,8,,8b,,1,7,1,7,
{16}2,6,2,6,3,5,3,5,4,4,4,4,4,3,2,1,87,6,5,4,{32}2,3,4,5,6,7,8,1,2,3,4,5,6,7,8,1,{12}2/6,6,,
{12}2V41[6:1]/6V85[6:1],,26,26,
