&title=Brand new!
&artist=辻野あかり, 砂塚あきら, 桐生つかさ
&first=1.42
&des=Ragna
&wholebpm=136
&demo_seek=
&demo_len=
&des_5=Ragna
&lv_5=13
&inote_5=(136){4}
2xh[4:1],3h[4:1],4h[4:1],5h[1:1],
B6,B3,E8,E2,
7h[4:1],6h[4:1],5h[4:1],4h[1:1],
B3,B6,E2,E8,
3xh[8:1]/4xh[8:1],3h[8:1]/5h[8:1],3h[8:1]/6h[8:1],3h[8:1]/7h[8:1],
3h[8:1]/B8,3h[8:1]/B5,3h[8:1]/B1,3h[8:1]/B4,{8}
6h[16:1]/5h[16:1],6h[16:1]/4h[16:1],
6h[16:1]/3h[16:1],6h[16:1]/2h[16:1],{16}1,5,1,5,{32}
1x,8x,7x,6x,5x,4x,3x,2x,{8}
1xh[8:5]/8xh[8:5],,,,,,1-4[8:1]b/8-5[8:1]b,,{16}
A1/A8/D1f,,,,36,,3,,3h[16:3]/8,,,4h[16:3],,,5,,
64,,6,,68,,6,,6h[16:3]/2,,,5h[16:3],,,4,,
35,,3,,31,,3,,3h[16:3]/7,,,4h[16:3],,,5,,
6b-4[8:1]/4,,,,2b-6[8:1]/6,,,,8b-4[8:1]/2,,,,1bh[8:3]/8,,,,
5h[8:1],,{32},6x/2x,7x/3x,8x/4x,{16}1bx/5bx,,,,7h[16:3]/4,,,6h[16:3],,,5,,
34,,3,,38,,3,,2h[16:3]/5,,,3h[16:3],,,4,,
65,,6,,61,,6,,45,,,,1-5[8:1]/8-4[8:1],,27,,
18,,,,1-5-8[4:1]/8,,27,,8-4-1[4:1]/1,,,,,,,,
6xh[4:1],,,,B1,,6,6,5,,,45,,,34,,
3h[4:1]/4,,,,B8,,3,3,4,,,45,,,65,,
6h[4:1]/5,,,,B1,,6,6,5,,,45,,,3qq4-6[8:3]/4,,
34,,5,,6,,7,,8h[4:1],,,,5-8[8:1],,,,
6h[4:1]/5,,,,B1,,6,6,5,,,45,,,34,,
3h[4:1]/4,,B5,,B8,,3,3,4,,,45,,,65,,
6h[4:1]/5,,B4,,B1,,6,6,5,,,45,,,3qq4-6[8:3]/4,,
34,,,,6V42[16:3],,,,1-5[8:1],,,,8,,6,6,
5xh[4:1],,,,B8,,5,5,6,,,45,,,34,,
4h[4:1]/2,,,,B1,,4,4,3,,,45,,,65,,
5h[4:1]/7,,,,B8,,5,5,6,,,45,,,34,,
4<3[4:1]/2,,1,,2,,3,,4h[4:1],,,,1,,3,3,
4h[4:1],,,,B1,,4,4,3,,,45,,,65,,
5h[4:1]/7,,,,B8,,5,5,6,,,45,,,34,,
4h[4:1]/2,,,,B1,,4,4,3,,,45,,,65,,
5h[4:1]/7,,,,8xh[8:1],,4x,4xh[8:1],,6x,6x,{32}E3,E2,{16}E1f,,,,
5pp4-2-8[256:107]*pp4[4:1],,,,4V28[256:43],,,,,,,,4qq5-7-1[256:107]*qq5[4:1],,,,
5V71[256:43],,,,,,,,5w1[8:1],,,,,,,,
7x/8x,6x/1x,,,7x/8x,6x/1x,,,7h[4:1]/8^3[8:1],,,,,,,,
1x/2x,3x/8x,,,1x/2x,3x/8x,,,2bpp4[8:1]/1bqq7[8:1],,,,,,,,{8}
2x/8x,21,23,24,25,26,71,78,
76,75,74,73,{32}2x/8xh[8:1],3x,4x,5x,,,,,1xh[8:1]/7x,6x,5x,4x,,,,,{16}
2,2,8,8,4,4,6,6,1,1,8,8,{32}2x,3x,4x,5x,6x,7x,8x,1x,{8}
2bx-7[8:1]b/6bx-3[8:1]b,,2bx/6bx,,,,,,{16}
7b-3[8:1]b/1b-5[8:1],,,,7b/1b,,,,6,5,,3,4,,26,,
7b-3[8:1]b/1b-5[8:1],,2b/6b,,7b/1b,,,,6,5,,3,4,,26,,
1-5[8:1]/7,,2,,7-3[8:1]/1,,6,,17,,,,2-6[8:1]/1-5[8:1],,83,,
21,,,,1/2-4-1[4:1],,83,,1-5-8[4:1]/2,,5,,8,,6,,
7x,,1,1,5,,64,,E7/3,,,E1/3,,,3/E5,,
2,,8,8,4,,3q5[4:1]/5,,8xh[8:1],,,8xh[8:1],,,8x,,
B2/B3,,B7/B6,,B2/B3,,B7/B6,,B2/B3,,,,27,,36,,
4bx-1[8:1]b/5bx-8[8:1]b,,,,4bx/5bx,,,,2,4,,7,5,,82,,
7bv4[8:1]b/3b-8[8:1],,,,7b/3b,,,,2,4,,7,5,,82,,
7bv4[8:1]b/3b-8[8:1],,4b/6b,,7b/3b,,,,2,4,,7,5,,82,,
7^2[8:1]/3,,6,,3^6[8:1]/7,,4,,37,,,,7-3[8:1]/8-4[8:1],,16,,
78,,,,8/7-5-8[4:1],,16,,8-4-1[4:1]/7,,4,,1,,3,,
2x,,8,8,1,,7,,{32}8x/3b,4x,5x,,,,8x/3b,4x,5x,,,,8x/3b,4x,5x,,{16}
7,,1,1,8,,2,,1b/B5,,,2b/E7/B6,,,3b>4pp6[8:5]b/E8/A7f/B7,,
,,,,,,,,,,,,,,,,
1bx-4[8:1]b/5bx-8[8:1]b,,,,1bx/5bx,,,,75,75,,,35,35,,,
1x/2x,,3,,45,,6,,7/8-5[8:1],,,,2/8-3[8:1],,1,,
8^5[8:1]/6,,,,2/8^3[8:1],,,,8-4[8:1]/6,,,,84,,,,
87,,6,,54,,3,,2/1-4[8:1],,,,7/1-6[8:1],,8,,
1^4[8:1]/3,,,,7/1^6[8:1],,,,1-5[8:1]/3,,,,15,,,,
4x/3x,,2,,18,,7,,6/5-8[8:1],,,,3/5-2[8:1],,4,,
5^6-8[8:1]/7,,,,3/5^4-2[8:1],,,,5-1[8:1]/7,,,,51,,,,
56,,7,,81,,2,,4/3h[4:1],,,,1-6[8:1],,8,,
1/7h[4:1],,,,8-2-7-3-6-4[2:1],,1,,8/2h[2:1],,,,,,,,
{32},D2,A1,D1,A8,D8,A7f,,{4},,,
,,,,
E
