&title=命に嫌われている
&artist=カンザキイオリ
&first=0.05
&lv_6=13+
&des=命に棄われている
&inote_6=
(200){4},,,,,,,,{1}5h[1:1],
,4h[2:3],
{4},,,,5h[4:3],
,,3-5[8:1],
{8}6,,,6,,,{4}6,
{1}6qq3[1:1],
{8},,,,4,5,{4}6x/3x,
2-4[8:1],{8}5,5,{4}5h[4:1],3,
{8}3-5[8:1],6,{4}6h[4:1],,7/5,
7-5[8:1],{8}4,4,{4}4h[4:1],6,
{8}6-4[8:1],3,{4}3h[4:1],,2/4,
5/3h[4:1],{8}5,5,{4}4/6h[4:1],3,
2h[4:1],{8}4,4,{4}5/3h[4:1],6,
6h[4:1],{8}5,6,4,5,{4}4/6h[4:1],
5-3[8:1],7-5[8:1],2,4x,
3h[4:1],{8}5,4,{4}6-4[8:1],{8}6/3,3,
2,2,{4}2h[4:1],5,6/3,
{8}6,5,4,5,4,3,6,4,
5,5,{4}5/3-5[8:1],6,6x,
4h[4:1],{8}6,6,5,5,{4}6/4,
5-1[8:1],4h[4:1],{8},,3,3,
{4}2/4,{8}6,7/5,,4,{4}5/3-5[8:1],
7-5[8:1],2,{2}4h[2:1],
{8}6,4,5,4,{4}4h[4:1],{8}5,4,
6,3,{4}3h[4:1],7V58[4:1],{8}3,3,
4,1,3,8,2,7,3,6,
{4}5/2h[4:1],8-6[8:1],4-2[8:1],{8}5,5,
{4}1/6-3[8:1],{8}2,2,1,1,{4}5/2,
5/3-5[8:1],6,7h[4:1],5,
6/4,{8}3,3/5,,6,{4}7/4,
6h[4:1],E5/B4,3h[4:1],B6/B5,
{8}5,2-5[8:1],,2/6,7,7,4,4,
{4}6-1[8:1],{8}6/4,3,2,8,{4}3/7,
{8}6-4[8:1],4-7[8:1],6,3,2-5[8:1],2,2/8,8,
7,7,{4}6/4-2[8:1],4/8-4[8:1],8/1,
{8}2h[4:1],4,5h[4:1],3,4h[4:1],6,7h[4:1],3,
2-6[8:1],6-3[8:1],{4}2,8h[4:1],{8}2,3/7,
{4}6/4h[4:1],{8}5,4,{4}6/3h[4:1],{8}4,3,
{4}5/2-5[8:1],{8}2/6,7,{4}8<5[8:1],B3/B4,
{8}2,2-5[8:1],,6/2,7-3[8:1],8,7,1,
2h[4:1],4,5,6/3,{4}4/7h[4:1],3,
{8}2,2/4,3,3/5,6,6/4,7,5/7,
8-4[8:1],4<7[16:3],8,3,{4}2h[4:1],4,
{8}3-5[8:1],7-4[8:1],3,7,2-5[8:1],8-6[8:1],2,8,
{4}1h[4:1],4,2/5,3/6,
5v3[8:1],4-8[8:1],5,6x,
{16}1,8,2,7,3,6,4,5,3,4,2,5,1,6,8,7,
{8}1x>4[8:1],8,1x-5[8:1],7,1x,6,7x/4x,4/7,
{4}8b-4[8:1]/3b-8[8:1],3b/8b,2/6,{8}4/8,8/4,
{4}3/7-3[8:1],{8}7/2-6[8:1],1,{4}4h[4:1],{8}7,8,
1/5,2,{4}3/7<4[8:1],{8}7/2-6[8:1],2,8,8,
7/5,4,3/8,2,1/6-4-7[8:1],1-5[8:1],6,1,
{4}8h[4:1],4b,{8}7/3,2/6,{4}5-8[8:1]/1-4[8:1],
5b/1b,{8}2,6,3,7,4/8-4[8:1],8/4-8[8:1],
4/8,3,{4}2h[4:1],{16}1x,8,7,6,4x,3,2,1,
{8}8x-2[8:1],5,8x-3[8:1],6,8x-4[8:1],7,8x,6,
{4}5b-1[8:1],5b/2b,3h[4:1],{8}1,8,
7x/4x,6,5x/3x,2,6x/1x-5[8:1],2/5-2[8:1],1x/6x,7,
8-4[8:1],8,{4}1b,2h[4:1],{8}4,4,
3>8[8:1],4,5,6>3[8:1],7,8,1<6[8:1],2,
{4}3xh[4:1],5b,{16}1h[16:3]/2-5[8:1],,,2,{8}1,1,
8-4[8:1],8,7-3[8:1],7,6-2[8:1],6,5-1[8:1],5,
{4}4b,5b/2b-6[8:1],2b/7b-4[8:1],7b/1b-5[8:1],
{1}6xh[1:3],
,,,4<4[1:3],
,5h[2:3],
{8},,,,,,,,3,
4,3,5,{4}4/6h[4:1],{8}5,5,
4,5,4,5/4,{2}4h[8:1]/5h[8:1],
{8}3,3,6,6,4,4,5,5,
4h[8:1],6h[8:1],3h[8:1],5h[8:1],4b,,,4,
3/5,2h[4:1],,5,4/6,7h[4:1],,3,
5/2,1h[4:1],,6,3/7,8h[4:1],,3,
{4}3h[4:1],{8}5,4,6,4,5,4,
6,4,5,3,{4}6h[4:1],4b,
{8}6,6h[4:1],,5,6-4[8:1],4,6,3,
7-4[8:1],2,7,1,{4}8-4[8:1],{8}1,1,
2/5,2,3/6,6,4/7,4,6/3,6,
5/2,3,4,5,{4}6/4-2[8:1],8-4[8:1],
1h[4:3],,,4,
5,3<4<5[4:1],{8},,,,6h[4:1],
4,4h[4:1],5,5h[4:1],3,3h[4:1],6,
{4}6-2[8:1],6b<2[4:1]*>2[4:1],{8},,,,1-5[8:1],
2-6[8:1],1,2,1,8,7/4,6/3,
{4}2b>5[8:1]/5b-1[8:1],5b/2b-6[8:1],2/7h[4:1],{8}5,5,
6/4,7,8/2,3,{4}5/4-1[8:1]*-7[8:1],4w8[8:1],
4<7[8:1]*>1[8:1],4b,{8}5/3,4,{4}5/3,
5x/1x>4[8:1],{24}5x/1x,6,7,8,,,{4}5x-1[8:1],{8}6,6,
{4}6x/2x>5[8:1],{24}2x/6x,7,8,1,,,{8}6x-2[8:1],8,{4}7h[4:1],
{8}1,1/6,5,5/2,3,3/6,7,4/7,
5b-1[8:1],6,{4}7-3[8:1],2h[16:3],{16}4,5,6,7,
{8}8x/2x-6[8:1],3,2x/1x-5[8:1],8,{4}1x/3xh[4:1],{8}6,6,
{4}7b-2[8:1]/3b-6[8:1],3b/7b,4/8,{8}2/6,6/2,
8,1/7,2,3/1,4,5/3,6,5/7,
{4}4x-1[8:1]/8x-5[8:1],8x-3[8:1]/4x-7[8:1],4x/8x,6b/2b,
4bw8[8:1],4b`Cf,5bw1[8:1],5b`Cf,
4bw8[8:1],Cf/B4/B8/B7/B1`4b,5bw1[8:1],Cf/B5/B1/B8/B2`5b,
4b>1[8:1]/5b<8[8:1],5b/4b/E7f/E3f,5bs1[8:1]/4bz8[8:1],5b/4b/Cf,
5b/4b>1[8:1],{24}5b/A4f,6,7,8,,,{4}4b/5b<8[8:1],{24}4b/A5f,3,2,1h[8:5],{48},,,,A8f,
B8,C,B4,{12}A4,,,,,{4}5x,6/4-1[8:1],
4/7-2[8:1],7/3-6[8:1],3/8-5[8:1],8b/2b,
1h[4:1],{8}4,4,2/5,3,{4}4/7<4[8:1],
7/2-6[8:1],2/8-4[8:1],8/3,1b/7b,
2h[4:1],{8}7-4[8:1],4V61[8:1],7,3,{4}2-6[8:1],
2/1-5[8:1],1/8-4[8:1],{8}8/2,2,1,1,
{4}4/8h[4:1],{8}5,6,7/1,2,{4}3/6-4[8:1]*-3[8:1],
6b-8[8:1]*-1[8:1],6b,{16}2,6,2,6,3,7,3,7,
{4}8/4h[4:1],{8}8,8,7/3,6,5/1-3[8:1],3,
{4}5x/1x-6[8:1],4x/1x-4[8:1],7x/1x,2b/8b,
1/5h[4:1],{8}1,1,2/6,3,4/8-6[8:1],6,
{4}4x/8x-3[8:1],5x/8x-5[8:1],2x/8x,7b/1b,
1/5h[4:1],{8}1,1,2/6,3,4/8-6[8:1],6,
4x/8x-3[8:1],2,4x/8x-5[8:1],6,{4}2b/8b,{8}1,1,
2/5,3,4,7/3,6,5,{4}2-6[8:1]/4-8[8:1],
4b/2b,5b/7b,{16}4,5,4,5,4,5,4,5,
{8}6x/3x,,,B6,,,{4}4h[8:3],
{8},5,,,{4}B6,E4,
{8}3h[8:3],,,B6,,,{4}4h[8:3],
{8},6,,,{4}E6,E4,
{8}1pp4[4:7],,,5,,,{4}5,
{8}6,,,6,,,{4}6,
{2}7h[1:1],{4}4,4,
4>1[2:1],8,7,6x,
E
