&title=MVURBD
&artist=ETIA.
&first=0.35
&lv_5=14
&des_5=Taxchan
&des=Taxchan
&inote_5=
(175){4}Cfh[1:1],,,,{1}6x<3[4:15],
{4},,,,,,,,,,,,6x,
6,5,5,
4,4,3,3,
2,2,1,1,
{2}4z8[8:1]/5-8[8:1],7x-1[8:1]/8x-4[8:1],
{4}Cf,{8}3/E8,E7,3/E6,E5,3,C,
{16}5,4,{8}5,2/E8,E7,2/E6,E5,{4}2,
3/C,{8}3/E8,E7,3/E6,E5,3,C,
2-4[8:1],1,8-6[8:1],1,4x,3h[16:1],{16}6x,4,5,3,
{4}6,{8}6/E2,E3,6/E4,E5,6,C,
{16}4,5,{8}4,7/E2,E3,7/E4,E5,{4}7,
6/C,{8}6/E2,E3,6/E4,E5,{4}6/C,
7bq6[2:1]/4b-1[8:3],,,2>4[8:1],
6h[4:1]/2b-5[8:1],{8}2-6[8:1],7h[4:1],{4}2,2/7,
{24}1b/7b,6,5,4/1,,,,,,8b/2b,3,4,{4}5/8,4h[8:1]/5h[8:1],
{8}6b/3h[4:1],5,7-5[8:1],6/2h[4:1],{4}7,{8}2/6,7,
{24}8b/2b,3,4,5/8,,,,,,1b/7b,6,5,{4}4/1,1h[8:1]/8h[8:1],
{8}2b/8b,2,4/6,4,5/3,5,7/1,7,
2/8,1/7,6/8,7/5,6/4,5/3,4/2,1/5,
{16}1,4,2,5,3,6,4,7,{32}1w5[8:1],2,3,4,5,6,7,8,{4}1,
{8}B1f/B8/B7/B6/B5/B4,,,E2f/E1/E8/E7/E6/E5/E4,,,{4}8bw4b[8:1],
8b,{16}3bx,7,5,7,1,7,5,7,3,7,5,7,
2x,6,4,6,8,6,4x,6,2,6,4x,6,8-3[8:1],6,4x,6,
{8}8x,6h[16:1],{16}2bx,7,4,7,6,7,4,7,2,7,4,7,
{4}1-3[8:1]*-4[8:1],1-6[8:1]*-7[8:1],1-5[8:1],1xw5b[8:1],
1bx,{16}6bx,2,4,2,8,2,4,2,6,2,4,2,
7x,3,5,3,1,3,5x,3,7,3,5x,3,1-6[8:1],3,5x,3,
{8}1x,3h[16:1],{16}7bx,2,5,2,3,2,5,2,7,2,5,2,
{8}6-1[8:1],5,3-8[8:1],4,{4}8z4[8:1]*-4[8:1],8x,
Cf/B8/B1/B7/B2,{16}3bx,6,2,6,8,6,2,6,5,6,1,6,
4x,5x,4x,6,3,6,2,6,8,6,2,6,5,6,{8}4h[8:1],
{4}C,{16}6bx,3,7,3,1,3,7,3,4,3,8,3,
{8}7-1[8:1],2,{4}7-4[8:1]/3-8[8:1],C,{16}8x/4x,1/5,2/6,3/7,
{4}4x>1[8:1]/8x<5[2:1],4,{2}C,
{4}1>4[2:1]/5<8[8:1],5,{2}C,
{4}3-6[8:1]/7-2[2:1],3,{2}C,
{4}3h[8:5]/5h[8:5],,,C/B8/B1,
{2}2-6b[8:1]/8-4b[8:1],{8}5,4,3/7-3[8:1],2,
{4}7/8-4[8:1],8/1-5[8:1],{2}1/5-2[8:1]*-8[8:1],
{4}3/7,2v4b[8:1]/6<2b[16:3],,5h[4:1],
{8}1-6[8:1],2-5[8:1],1,2,7,4,{4}5/6,
{8}3-1[8:1],1q6[4:1],,6-8[8:1],{2}8-3[8:1],
{32}2h[4:1]/E1f,B8,B7,E7,,,,,,,,,3h[4:1]/E8f,B7,B6,E6,,,,,,,,,{4}4/5,
{8}6-8[8:1],8p3[4:1],,3-1[8:1],{2}1-6[8:1],
{32}7h[8:1]/E1f,B1,B2,E3,,,,,6h[8:1]/E2f,B2,B3,E4,,,,,5h[8:1]/E3f,B3,B4,E5,,,,,{4}7<5[8:1],
4/7b-4[8:1],3/7-3[8:1],7/2,7/1,
{24}8b/2b,3,4,5/8,,,,,,1b/7b,6,5,{4}4/1,5h[8:1]/4h[8:1],
{8}3b/5h[8:1],4,6h[8:1]/2-4[8:1],3,{4}2/7h[8:1],{8}3/8h[8:1],2,
{24}1b/7b,6,5,4/1,,,,,,8b/2b,3,4,{4}5/8,8h[8:1]/1h[8:1],
{8}1b/8b,8,7/8,7,6/7,6,5/6,5,
4/5,4,4/3,3,2/3,2,2/1,1,
{16}1,8,1,8,2,7,2,7,3,6,3,6,4,5,4,5,
2x,6,3,7,4,8,5,1,4,8,3,7,2,6,1,5,
{1}8b/Cf,
,,{4},,{8},B1,
E3,B4,
{4}A5,A6,A7,A8,
,,,,{1}7p4[4:3],
1w5[2:1],
{4}5x/2xh[4:1],{8}5,3,5/4,3,5,1h[4:1],
{4}6,6/2h[8:1],6/3h[8:1],{8}4/6,3,
{4}4/6h[4:1],{8}4,7,6/4,7h[8:1],4,8h[8:1],
3,6,3,6h[4:1],{4}3,3/5h[8:1],
2h[4:1]/E6,{8}B6,3,4/B7,3,E8,1h[4:1],
{4}E6,2h[8:1]/B6,3h[8:1]/B7,{8}4/E8,3,
{4}8h[4:1]/B4,{8}B3,7h[8:1],B2,6h[8:1],B1,7,
{4}2xqq5[8:3]/8xpp5[8:3],{8},,,,7<5[8:1],{16}4,4,
{4}3h[4:1]/7b-4[8:1],{8}7-3[8:1],2h[4:1],{4}7,7/2,
{24}8b/2b,3,4,5/8,,,,,,1b/7b,6,5,{4}4/1,5h[8:1]/4h[8:1],
{8}3b/6h[4:1],4,2-4[8:1],3/7h[4:1],{4}2,{8}7/3,2,
{24}1b/7b,6,5,4/1,,,,,,8b/2b,3,4,{4}5/8,8h[8:1]/1h[8:1],
{8}7b/1b,7,5/3,5,4/6,4,2/8,2,
7/1,8/2,3/1,2/4,3/5,4/6,5/7,8/4,
{16}8,5,7,4,6,3,5,2,{32}8w4[8:1],7,6,5,4,3,2,1,{4}8,
{8}B1f/B8/B7/B6/B5/B4,,,E2f/E1/E8/E7/E6/E5/E4,,,{4}2b/7b,
{1}1bw5[2:3],
{8},,,,,,,,D5,
D6,D7,D8,D1,D2,D3,D4,
{16}2bx/1xh[4:1],3,4,5,{8}6,{16}7bx/8xh[4:1],6,5,4,{8}3,{4}2w6b[8:1],
2b,{8}8bx/4bx,{16}1/5,8/4,{8}7x/3x,{16}8/4,7/3,{8}6x/2x,{16}7/3,6/2,
{8}5x/1x,{16}2/6,1/5,{8}8x/4x,{16}1/5,8/4,{8}7x/3x,4x<6[8:1]/8x>2[8:1],5x/1x,4x/8x,
{16},,1x/5x,2x/6x,{8}3x/7x,{16}2/6,3/7,{8}4x/8x,{16}7/3,8/4,{8}1x/5x,{16}8/4,1/5,
{4}2xp6[8:1]/6xp2[8:1],6x<1[8:1]/2x>5[8:1],,4/8w4b[8:1],
{32}8b,Cf,,,,,,,{8}6b/2b,{16}3,5,{8}1x,{16}6,4,{8}8x-4[8:1],1/7,
8x<5[8:1],{16}2,3,{8}8x>3[8:1],{16}3,4,{8}8x-4[8:1],{16}4x-8[8:1],5,{8}8x,3xh[8:1],
,1b/6b,6b/1b-5[8:1],7/8,1x>4[8:1],{16}7,6,{8}1x,{16}6,5,
{8}2x-8[8:1],7,{4}2-5[8:1]/6-1[8:1],C,{16}5x/1x,8/4,7/3,6/2,
{4}5xh[8:1]/1xh[8:1],{8}3b/7b,{16}1,2,{8}3x/5x,{16}8,7,{8}6x/4x,{16}8/7,6/1,
{8}5x/2x,{16}8/1,2/7,{8}3x/6x,{16}1/2,3/8,{4}4x-1[8:1]/7x-2[8:1],4x/7x,
{16}2x,1,3,8,4,7,5,6,3x,4,2,5,1x,6,8,7,
{32}1x,2,3,4,5,6,7,8,1,2,3,4,5,6,7,8,1,2,3,4,5,6,7,8,{4}1w5b[1.3714##0.1714],
1h[8:5],,,1,
2b>4[8:1]/8b-4[8:1],2-6[8:1]/8<6[8:1],8/2>5[8:1],{8}5/2,6,
{4}4h[8:1]/7-4[8:1],{8}7/3-8[8:1],2,5-8[8:1],6,,1>4[8:1]*-4[8:1],
,1<6[8:1]*-6[8:1],,1,,,{4}4/6h[4:1],
1V35[4:1],{8}5-2[8:1],7<5[8:1],8,7-3[8:1],3,7,
{4}8-2[8:1]*-3[8:1],8-5[8:1]*-6[8:1],8,{8}4<8[4:1],2,
4,2>4[8:1],,2-7[8:1]/1-7[8:1],,1-5[8:1]/2-6[8:1],,1/2,
,2<4[8:3],6,2,,,{4}8w4b[8:1],
8b,{8}6-2[8:1],4-8[8:1],6,4>1[8:1],,4,
{4}8-5[8:1],2/8-3[8:1],6/8-4[8:1],{8}2/8V24[4:1],1,
{4}5/8,{8}6-1[8:1],7,4-1[8:1],3,,8<5[8:1]*-5[8:1],
,8>3[8:1]*-3[8:1],,8,,,{4}5/3h[8:1],
{8}7/2x-7[8:1],7,5,5,3/6-3[8:1],3,1,1,
4/2,4,3/5,3,4/6,6,5/7,5,
{16}3x,6,3,6,2,7,2,7,{24}1x,8,1,8,1,8,2,7,2,7,2,7,
3x,4,5,7x,6,5,2x,3,4,8x,7,6,{32}1x,2,3,4,5,6,7,8,{4}1w5b[8:1],
1x,{16}6bx,3,7,3,1,3,7,3,4,3,8,3,
5x,4x,5x,3,6,3,7,3,1,3,7,3,4,3,{8}5h[8:1],
{4}C,{16}3bx,6,2,6,8,6,2,6,5,6,1,6,
{8}3,7,{4}2-5[8:1]/6-1[8:1],C,{16}1x/5x,8/4,7/3,6/2,
{2}5<3[2:1],B5/B3,
4>7[2:1],B4/B6,
5<1[2:1],{8}B5/B3,,,3,
{16},5,{8}5,2,8w4[8:1],{2}7/1,
E
