&title=Unwelcome School
&artist=Blue Archive
&first=0.051
&lv_5=13+
&des=Poke
&des_5=Poke
&inote_5=
(180){4}5h[4:1],6,{16}4h[16:3],,,7,,,{8}5,
4,4,3,3,3,{16}1,2,,,,,{4}1h[8:1],
2h[8:1],3h[8:1],4h[8:1],
{8}5,6,7,8,{2}2b/7b,
{4}5h[4:1],4,{16}5h[16:3],,,3,,,{8}6,
6,5,4,4,7/5,{16}8,8,,,,,{4}1h[8:1],
2h[8:1],1h[8:1],{8}8,7,
6/5,5/6,7/4,7/4,{2}8bh[4:1]/2bh[4:1],
{8}8>3[32:3],5,8,6-3[32:3],5,6,,3,
3,2,2,3/8,2-6[16:1],{16}3,1,,,,,{8}7v4[32:3],
7,8q4[32:3],8,1-6[32:3],1,2-5[32:3],2,
8,7,6/5,3/4,{4}2b/8b,1p4[32:3],
{8}8/1,7,8/3,2,{16}1/8,,,1,{8}7-5[16:1],8-4[32:3],
7-3[16:1],8-2[32:3],7,8,4,{16}1,1,{8}6h[8:1],8,
5/7,6,2/4,1,7/5,6,5,4,
7/8,8/7,2/1,2/1,{32}3x,4x,5x,6x,7x,8x,1x,6x/2bx,,,,,,,,,{8}8-3[32:3],
4,8,7,4,6/5,,3/8,
2,6/1,7,3/8,2v5[16:1],{16}7,7,{4}2,
{8}7v4[32:3],7,8q4[32:3],8,1-6[32:3],1,2-5[32:3],2,
8,7,6b/5b,4b/3b,{4}2b/8b,C,
{8}1/7,6,5/1,8,{16}2/7,,,1,{8}7-5[16:1],8-4[32:3],
7-3[16:1],8-2[32:3],7,8,4,{16}1,1,{8}6h[8:1],8,
5/7,6,2/4,1,7/5,6,5,4,
2/1,2/1,7/8,7/8,{4}Ch[4:1],B7,
{8}6,7,6,5,6,7,6,5,
4,3,4,3,2,3,4,3,
{4}2,8h[8:1]/7h[8:1],6h[8:1]/1h[8:1],5h[8:1]/2h[8:1],
4h[8:1]/3h[8:1],3h[8:1]/2h[8:1],3h[8:1]/4h[8:1],2b/5b,
{8}6,6,5,4,6,6,7,8,
1,1,2,3,1,1,8,7,
{4}8/6h[4:5],4,1,5,
8,4,7-2[32:3]/3-6[32:3],7/3,
{8}5,6,4,5,3,4,5,6,
8,7,8,7,6/5,4,6/5,7,
{4}1>3[32:3],5<7[32:3],2>4[32:3],6-2[32:3],
8-4[32:3],6-3[32:3],6,4/2,
{16}6x,5x,{8}4x,2/1,8,2/1,3,8/7,8/7,
{16}6,5,{8}4,2,2,1,1,8,8,
{4}7b,{8}4,4,5,4,{16}3,4,{8}3,
5,5,2/5,3,{16},,B4,B5,{4}B6,
{8}6,B4,7,B3,8-5[32:3],B2,8/1,3,
4/6,B5,3,B6,2>5[32:3],B7,{4}2/6h[4:1],
{8}8,7,6,5,4,4/5,4,4/6,
6,7,8,1,{2}7<5[32:3]/2>4[32:3],
{8}6,7,5,4,3,2,4,6,
7,5,7,4,{16}7/4,,,6/3,,,{8}5/2,
8,7,6,5,4/3,6/5,{4}5-7[32:3]/4-2[32:3],
{32}5/4,E6/E4,{16}E7/E3,{32},,,,1x/8x,D8/D2,A7/A2,D7/D3,{8}A6/A3,{32}8x/1x/B1/B8,B7/B2,B3/B6,E6/E4,,,,,{4}2/4,
8/2>5[32:3],2,{16}1/7<4[32:3],,,1,{8}7,1,
{4}8/2>5[32:3],2/1-5[32:3],{16}1/7,,,4,{8}5,1,
{4}1-6[32:3],1,{16}1-4[32:3],,,8,{8}1-6[32:3],8,
{4}1-5[32:3],1-4[32:3],1,6b/3b,
5h[4:1],6,{16}4h[16:3],,,7,,,{8}5,
4,4,3,3,3,{16}1,2,,,,,{4}1h[8:1],
8h[8:1],3h[8:1],7h[8:1],
{8}5/1,6/2,7/3,8/4,{2}Cfh[4:1],
{32}1x,8x,{16}7x,{32}2x,3x,{16}4x,{32}8x,7x,{16}6x,{32}2x,3x,{16}4x,{32}8x,7x,{16}6x,{32}1x,2x,{16}3x,{32}7x,6x,{16}5x,{32}1x,2x,{16}3x,
{32}8x,7x,{16}6x,{32}5x,4x,{16}3x,{32}2x,1x,8x,7x,6x,5x,4x,3x,2x,1x,8x,7x,6x,5x,4x,3x,{8}2x,8,
8/7,5,2/1,4,6/8,7,8,1,
{16}3x,4x,3,4,3,4,3,4,{8}3,4,5,6,
7b,{32}1x,2x,3x,4x,{8}7b,{32}1x,2x,3x,4x,{8}7b,{32}1x,2,3,4,{8}7b,{32}1x,2,3,4,
{4}7>3[4:1],3<7[4:1],7v4[4:1],{8}8,8,
{4}8h[8:1],7h[8:1]/5h[8:1],4h[8:1]/2h[8:1],7h[8:1]/5h[8:1],
4h[8:1]/2h[8:1],{8}3/5,7,1-5[32:3],8,{4}1,
{16}8-4[32:3],7,,7,{8}8,6,{16}4,5,,5,{8}4,6,
7/2,{16}6,5,3,4,6,5,3,4,6,5,3,4,{8}6b,
7-3[32:3],7,8-4[32:3],8,1-5[32:3],1,2-6[32:3],2,
3,3,7,7,{16}8v5[32:3],7,8,7,{4}8,
{8}2h[16:3],1,7h[16:3],8,6h[16:3],5,3h[16:3],4,
5/6,5,5/6,5,5/6,5,4,6,
7,7,8,8,1,1,4,5,
3b/6b,3b/6b,3b/6b,2b/7b,{4}1b/8b,C,
{8}6,7,6,5,6,7,6,5,
4,4,4,5,4,3,4,3,
{4}2>6[4:1],6q2[4:1],2>6[4:1],6p2[4:1],
2<6[4:1],6,4,2b/5b,
{8}3/2,2/3,2>6[32:3],1,{4}2/8p4[32:3],8,
{8}5,4,5,6,5,4,5,5/6,
{4}7h[8:9],1,5,1,
5,{8}6,{16}4,5,{8}5,4/7,{4}3-1[32:3],
3/8-4[32:3],8/1,{8}3/4,5,{4}6/5,
6-8[32:3],6/1-5[32:3],1/8,{8}3,4,
{4}5/7-3[32:3],8-4[32:3],1-5[32:3],2-6[4:1],
6-2[4:1],5,7,1/8,
{8}6/5h[8:1],7,3/4h[8:1],2,1,8,7,6/5,
3-6[32:3],4,3,7,8,5,6/8w4[32:3],7,
{32}B8,C,{16}B4,,,5,6,{8}5,5/2,4,{16}3,4,{8}2,
8b/7b,6,5,4,Ch[2:1],6,{4}6,
{8},,7/6,6/7,{16}5,6,{8}5,4,5,
8,7,6,5b,
E
