&title=灰色のサーガ
&artist=ChouCho
&first=0
&des=MMFC
&lv_5=14
&inote_5=(61.333333333333336)
{4},,,
{48}
45,,,,5,,3,,6,,4,,
7h[48:2],,5,6,5,,7,,1,,2,,
7,,6,,3,,4,,
8,,7,,1,2,3,4,
8,,7,,6,,15,,2,,3,,
8/4,,4h[48:2],,6,,6h[48:2],,2,,2h[48:2],,
8,,4,,5,,1h[48:4],,,,8,,
2h[48:2],,4,3,4,,2,,7,,6,,
25,,3,,48,,7,,
61,,2,,8,7,6,5,
1-5[48:2],,2,,8-4[48:2],,7,,3-7[48:2],,6,,
1b,,,,3/8b,,,,3b/7,,,,
2q5[48:12]/6,,,,,,2,,,,,,
1,,,,8,,,,7,,,,
7p4[48:12],,,,,,,,7,,,,
8,,,,1,,,,2,,,,
3qq5[48:12],,,,,,,,3,,,,
1,,,,8,,,,7,,,,
6>3[48:4],,,,,,,,1-5[48:2],,,,
2,,,,2,,,,
1pp4[48:12]/7,,,,8,,2h[48:4],,,,,,
6,,,,7,,,,8,,,,
1qq6[48:12],,,,8h[48:4],,,,2,,,,
4,,,,3,,,,2,,,,
1pp4[48:12],,,,2h[48:4],,,,8,,,,
6,,,,7,,,,8,,,,
8<5[48:2],,,,,,1,,1-5[48:2],,,,
8,,2,,2,,6,,
1>4[48:2],,,,,,8,,8,,,,
1/7<4[48:2],,,,6,,,,5,,,,
7/8-4[48:2],,,,,,,,1,,,,
7/8<5[48:2],,,,6,,3,,7,,2,,
8>3[48:2],,,,1,,,,8<5[48:2],,7,,
8,,,,,,,,
8/2-6[48:2],,,,,,,,3/8-4[48:2],,,,
2,,,,7,,,,
8/1-5[48:2],,,,2,,,,7-4[48:2],,,,
1/6,,,,,,,,
7/3-1[48:2],,,,,,,,4/8w4[48:4],,,,
3,,7,,7,,,,
8,,,,,,,,,,,,
2-5[48:2]/6,,,,6-8[48:2]/2,,,,2-7[48:2]/6,,,,
6-3[48:2]/2,,,,2-6[48:2]/6,,,,6/2,,,,
2/6V48[48:8],,,,2/6,,5,,4,,3,,
6/2V84[48:8],,,,3,,,,3,,,,
2/6,,,,7,,,,7,,,,
3q5[48:8]/6p4[48:8],,,,18,,17,,27,,45,,
3b/6b,,,,,,,,,,,,
1h[48:12]/7,,7,,,,5,,,,3,,
3-8[48:4],,,,8-5[48:4]/4,,,,5-1[48:4]/1,,,,
3/7-3[48:2],,,,,,,,,,,,
7-4[48:4],,,,4-1[48:4]/8,,,,1-5[48:4]/5,,,,
3-7[48:2]/7,,3,,,,3h[48:4],,,,,,
3-8[48:4],,,,8-5[48:4]/4,,,,5-1[48:4]/1,,,,
3/7^4[48:2],,,,7^2[48:2],,,,7-3[48:2],,,,
7,,,,7,,,,7,,,,
8h[48:4]/4h[48:4],,,,,,,,1-5[48:2],,5-1[48:2],,
7-3[48:2]/3h[48:4],,,,,,,,1>7[48:6],,,,
7,,,,,,,,8h[48:12],,,,
,,,,1h[48:4],,,,,,,,
7h[48:12]/4,,4,,,,6,,,,8,,
8-5[48:4],,,,5-2[48:4]/1,,,,2-6[48:4]/6,,,,
8/3-7[48:2],,,,,,,,,,,,
3-8[48:4],,,,8-4[48:4]/5,,,,4-7[48:4]/1,,,,
2-6[48:2]/3,,2,,,,2h[48:4],,,,,,
2-5[48:4],,,,5-1[48:4]/8,,,,1-4[48:4]/4,,,,
2/3>8[48:2],,,,3<6[48:2],,,,3-7[48:2],,,,
3,,,,3,,,,3,,,,
8h[48:4]/4h[48:4],,,,,,,,7-3[48:2],,3-7[48:2],,
1-5[48:2]/5h[48:4],,,,,,,,7,,,,
1^3[48:4]*^7[48:4],,,,3-7[48:4]/7-3[48:4],,,,3q2[48:6]/7q6[48:6],,,,
1,,,,,,,,,,,,
,,,,,,,,37,,,,
1-4[48:2]/4,,,,7-4[48:2]/4,,,,1pp5[48:6]/4,,,,
1/7,,,,1/7p1[48:4],,,,1q7[48:4]/7,,,,
,,,,2h[48:4],,,,,,,,
8V24[48:4],,,,4V28[48:4],,2V86[48:4],,8V64[48:4],,6V42[48:4],,
,,,,,,,,5,,,,
1q4[48:6]*p6[48:6],,,,1,,,,4v1[48:2]/6v1[48:2],,,,
1,,,,,,,,,,,,
3b/7b,,4,,5,,6h[48:6],,7,,8,,
1h[48:4],,7,6,5,,2,,3/7,,6,,
5/2,,3,,4/8,,7,,
6/3,,4,,5/8,7,6,5,
4/2,,2,,2/6,,6,,6/8,,8,,
4,,8,,5,,1,,6,,2,,
7h[48:6],,5,,4,,3h[48:6],,2,,1,,
8h[48:4],,2,3,4,,7,,6/2,,3,,
4/7,,6,,5/1,,2,,
3/6,,5,,4/1,2,3,4,
5/7,,7,,7/3,,3,,3/1,,1,,
5V38[48:8]*V38[48:8],,4-1[48:4]*-1[48:4],,3,,1V74[48:8]*V74[48:8],,8-5[48:4]*-5[48:4],,7,,
5b<3[48:16]*<3[48:16],,,,,,,,,,,,
,,,,,,,,,,,,
,,,,,,,,,,,,
E
