&title=Sdorica "The Story Unfolds"
&artist=Hoskey/Rayray
&first=-0.235
&des=物语
&des_5=物语
&lv_5=14
&inote_5=(60){4},{2},{12}4p1[6:1],5,5,
6,6,,5q8[6:1],4,4,3,3,2,2qq7[4:1],,7,
{2}5<4[4:1],{12}E5,C,E1,7p4[6:1],8,8,
1,1,,2q5[6:1],1,1,8,8,7,6h[6:1],,3pp1[3:1],
{3}6q8[4:1],,{12}2,1pp4[6:1],{24}8,8,{12}7,
{8}6,{24}5,5,,{12}8qq5[6:1],{24}1,1,{12}2,3>8V24[6:1],4,4,7<4V68[6:1],,,
3p2[8:1],3,3,7p6[8:1],7,7,3,{24}2,2,1,1,{12}8qq5[6:1],{24}1,1,{12}2,
{96}8/E3,E4,{48}A4,{8},{12}3,1pp4[6:1],{24}8,8,{12}7,{72}1/B6,B5,{36}E5,{9},{12}5,6,7,{24}2,3,
{12}4-2<7-5[4:1]/5-7>2-4[4:1],3/6,6/3,E5/A4/A5,{4},{36}E4,E3,E2,E6,E7,E8,8x/1pp5[6:1],{72},{24}2,3,4,5,6,
{12}7qq3[6:1],{24}8,8,{12}8,2,{24}1,1,,1,{12}7-5-8-4[4:1],{24}2,,3,,{4}4-1[12:1],
{6}2-8-3-7[4:1],{12}7,7-4[12:1],{8},{24}6,{4}6,{24}1x/8qq4[6:1],7,6,5,4,3,
{12}2pp6[6:1],1,E1,7,{24}8,8,,7,{12}7pp1<4[4:1],2,3,4V68[6:1],{6},{4}8,
{36}1,2,3,4/1,8,7,6/1,2,3,4/D8,D7,D6,D4,D3,D2,{12}E1/D1/Ch[12:1],2-6[24:1],1,8,
7-3[24:1],{24}8,,{12}1,{24}2<4[6:1],2,2,5,5,5,{12}2/6,{24}E1,B7,{12}E6,7x-3[24:1],{24}8,8,{12}1,
2p7[8:3],{24}1,1,8,8,{12}7,{24}6,6,,7,{12}7q2b[8:3],8,1xh[24:1],7,{24}2,2,,3,
{12}3,4,4xh[24:1],3-1[24:1]/5-1[24:1],{24}3-7[24:1]/5-7[24:1],4,5-8[24:1]/3-8[24:1],4,{12}3/5,3/5,3/5,{36}1,4,3,8,5,6,2,4,3,
7>8q1>2[4:1]*v2[4:1],5,6,4,5,4,{24}6/3,7/2,{2},{48}8/1-5b[24:1],7,6,5,4q2[12:1],3,2,1,8/2,7,6,5,
{12}1/4,4p6[12:1],{24},3,{12}5h[12:1],4,{24},7,{12}5/7h[6:1],{24}6,6,6,5/7,{12}4qq8[6:1]/8qq4[6:1],3/7,3/7,
{4}4/8,{12}1pp5[6:1]/5pp1[6:1],2h[8:1]/6h[8:1],,{4}1/5,{48}2h[8:1]/8v3b[24:1],7,6,5,4p7[12:1],3,,1,8,7,6,5,
{12}4/8,4q1[12:1],{24}2,2,{12}6h[12:1],4,{24},6,{8}2h[8:1]/8<5[24:1],{24}7,7,1,{12}8/1>4[24:1],{24}3,3,{12}2,
1pp4[4:1]/8qq5[4:1],{24}6,6,7,,{4}1/8,{48}A4,A3,A2,A1,A5,A6,A7,A8,{12}C,{48}1/8-4b[24:1],2,3,4,5p7[12:1],6,7,8,1/7,2,3,4,
{12}8/5,5q3[12:1],{24}6,6,{12}4h[12:1],5,{24},2,{12}4/2h[6:1],{24}3,3,3,2/4,{12}5pp1[6:1]/1pp5[6:1],2/6,2/6,
{4}5/1,{12}8qq4[6:1]/4qq8[6:1],7h[8:1]/3h[8:1],,{4}8/4,{24}1V36b[8:1]/5V72[8:1],2/6,,4/8,3/7,,{4}1/5b,
{24}8V63b[8:1]/4V27[8:1],3/7,,5/1,6/2,,{6}8/4b,{12}1/5,{48}1/5p1[12:1],2,3,4,5,6,7,8,1/7,2,3,4,
1/5q8[4:1],8,7,6,5,4,3,2,1,8,7,6,{12}5/1,{24}2,2,3,3,4,4,5,5,3/6,3/6,{48}4,5,4,5,3,6,3,6,2,7,2,7,
{24}8/1-5b[24:1],{96}2x/1,3,4,5,{24},{96}7x/8,6,5,4,{48}1,3,1,3,{4}B1f/E2/E1,{24},,,,,,,,,,,{48}E7,E6,
{36}E5/B4,,,,,,,,,,,,,{72}E3,B3,B4,E5/A4,{36},,,,,,,,,,,,,,,,,{16},,{64},{576},,,,,,,{24}7xw3[24:29],
E
