&title=IZANA
&artist=t+pazolite/P*Light
&first=0.19
&lv_5=14
&des_5=結月ゆかり
&inote_5=
(222){4}5,{2},{4}4,
{1}3/6,
{2}4,{8}5,{4},{8}4,
{1}6/3,
{4}2/7,{2},{4}1,
{2}7/2,{8}8,{4},{8}1,
{1}2/7,
{4}1x-3[8:1],1x-7[8:1],1xw5b[8:1],1b,
3x/6x,7/3-7[8:1],3b/6-2[8:1],6b/2,
{8}1,8,1-5[8:1],8,{4}1/7-3[8:1],7/2,
{8}4/2,1,,7/5,8,1,8,1,
7,{16}5,6,{8}5,7,2b/8b,{16}3,4,3p7[8:1],4,{8}3,
3,6q2[16:3],,6,{4}4w8[8:1],4,
{8}2,1,2-6[8:1],1,{4}2/8-4[8:1],8,
{8}3,5,2,6,4,6,3,7,
{4}2/B7,6/B3,4/B6,8/B2,
7x/2x,3/7-3[8:1],7b/2-6[8:1],2b/6,
{8}8,1,8-4[8:1],1,{4}8/2-6[8:1],2/7,
{8}5/7,8,,2/4,1,8,1,8,
2,{16}4,3,{8}4,2,7b/1b,{16}6,5,6,5,{8}6,
7-4[8:1],8,{4}7,{8}2-5[8:1],1,{4}2,
{8}7,8,7-3[8:1],8,7/1-5[8:1],2,{4}1,
{8}6,4,7,3,5,3,6,2,
8/1,7,8/1,2,{4}8-4[8:1]/1-5[8:1],1b/8b,
7/3,{8}2,1/7<5[8:1],,{16}8/7,1,{4}2,
5/3,{8}3,4/6-3v8[4:1],,6,{4},2/6,
{8}7,8/2>4[8:1],,{16}1/2,8,{4}7,
4/6,{8}6,5/3q3[4:1],,3,{4},{8}4,
5,2x/7,7x/2,1,8,2,7,
1,8,6/3x,3/6x,4,5,2,6,
{16}1,5,1,5,2,6,2,6,3,7,3,7,4,8,4,8,
{8}1,5,7,3,{4}1w5b[8:1],1b,
{8}7xh[8:3]/3xh[4:1],{4},{8}1,8,1,{16}7,8,7,8,
{8}7,7,8/1-5[8:1],2,1/7<4[8:1],8,{4}7/1,
{8}6h[8:3]/2h[4:1],{4},{8}3,5,4,{16}6,5,6,5,
{4}7b/C,2b/B7/B6,E3/B2/B3/5bw1b[8:1],5b,
{8}3xh[8:3]/7xh[4:1],{4},{8}8,1,8,{16}2,1,2,1,
{8}2,2,1/8-4[8:1],7,8/2>5p1[4:1],1,{4}2/8,
5xh[4:1],{8}4x,3xh[4:1],,6x,{4}2xh[4:1]/7xh[4:1],
{8},3,1,7,{4}5w1b[8:1],5b,
{8}3xh[8:3]/7xh[4:1],{4},{8}5,4,5,{16}3,4,3,4,
{8}3,3,4/5-1[8:1],6,5/3>8[8:1],4,{4}3/5,
{8}6h[8:3]/2h[4:1],{4},{8}4,5,4,{16}6,5,6,5,
6b,{8},{16}2b/C,{8},6b/C,{16},3b/C,{8},{4}7b/C,
{8}4/5,6,4/5,3,4/5,6,4/5,3,
6/4,7,3/5,2,6/4,7,3/5,2,
{16}1,5,1,5,2,6,2,6,3,7,3,7,4,8,4,8,
3,7,3,7,2,6,2,6,{4}2,7b/1b>1[1:7],
B6,{2},{4}B7,
{1}B2,
{2}B2,{8}B1,{4},{8}B8,
{1}B7,
{4}B6,{2},{4}B7,
{1}B8,
{2}B3,B2,
{1}B8/B1,
{2}Ch[1:3],{4}B7/B6,8x,
{2}8bx,B7/B6,
8x,{8}7x,{4},{8}7x,
{2}8bx,C/E3,
Ch[1:2],{4}B2/B3,1x,
{2}1x,{8}2x,{4},{8}2x,
{2}1bx,B7/B6/B2/B3,
,8bxh[2:9],
{4}1,1,2,2,
3,3,4,4,
5,5,6,6,
7,7,1,1,
1h[4:1],{8}7,2,{4}8h[4:1],{8}2,7,
{4}1h[4:1],{8}7,2,{4}8h[4:1],{8}2,7,
8/1h[4:1],3,8h[4:1],6,1h[4:1],4,8h[4:1],5,
{4}1x,{8}7,3,8,2,{4}1w5b[8:1],
1b,{8}7v4[4:1],3,4V68[8:3],4,,2q8[2:1],
,2,{4},1w5[8:1],1,
,{8}2v5[4:1],6,5V31[8:3],5,,7p1[2:1],
,7,{4},8w4[8:1],8,
,{8}6v1[4:1],2,1V75[8:3],1,,3p5[2:1],
,3,{4},4w8[8:1],4,
{8}2xh[4:1]/6xh[4:1],{4},{8}1xh[4:1]/7xh[4:1],{4},6xh[4:1]/4xh[4:1],
{8},7xh[4:1]/3xh[4:1],{4},1bw5b[8:1],1b,
{8}7x-4[8:1],8x-4[8:1],7x,8x,7x-4[8:1],1x-5[8:1],7x,1x,
8x-4[8:1],1x-5[8:1],8x,1x,8x-4[8:1],2x-5[8:1],8x,2x,
1x-5[8:1],2x-5[8:1],1x,2x,7x-3[8:1],1x-5[8:1],7x,1x,
8x-4[8:1],2x-6[8:1],8x,2x,{4}5,8b/1b,
{8}3x-1[8:1],4x-8[8:1],3x,4x,4x-1[8:1],5x-8[8:1],4x,5x,
5x-1[8:1],6x-8[8:1],5x,6x,4x-1[8:1],5x-8[8:1],4x,5x,
4x,3,2,1,8,7,6,5,
{16}4,5,4,5,4,5,4,5,{4}3/6,7b/2b,
{8}1/8,7,6/2-6[8:1],1,2b/7-3[8:1],8,{4}7b/3,
{8}1,8,1-5[8:1],8,{4}1/7-3[8:1],7/2,
{8}4/2,1,,7/5,8,1,8,1,
7,{16}5,6,{8}5,7,2b/8b,{16}3,4,3p7[8:1],4,{8}3,
3,6q2[16:3],,6,{4}4w8[8:1],4,
{8}2,1,2-6[8:1],1,{4}2/8-4[8:1],8,
{8}3,5,2,6,4,6,3,7,
E6,B7,E4,B2,{4}1b-4[8:1]/8b-5[8:1],1b/8b,
{8}2x/7x,7,6/2-6[8:1],1,2b/7-3[8:1],8,{4}7b/3,
{8}1,8,1-5[8:1],8,{4}1/7-3[8:1],7/2,
{8}4/2,1,,7/5,8,1,8,1,
7,{16}5,6,{8}5,7,2b/8b,{16}3,4,3,4,{8}3,
2-5[8:1],1,{4}2,{8}7-4[8:1],8,{4}7,
{8}2,1,2-6[8:1],1,2/8-4[8:1],7,{4}8,
{8}5,4,6,3,5,4,7,2,
4/5,6,4/5,3,{4}4-8[8:1]/5-1[8:1],5b/4b,
2/6,{8}7,8/2>4[8:1],,{16}1/2,8,{4}7,
4/6,{8}6,5/3-6v1[4:1],,3,{4},7/3,
{8}2,1/7<5[8:1],,{16}8/7,1,{4}2,
5/3,{8}3,4/6p6[4:1],,6,{4},{8}4,
4,2/6x,2x/6,5,5,7/3,3/7,
4,4,6x/2,6/2x,5,5,7/3,3/7,
{16}8,4,8,4,7,3,7,3,6,2,6,2,5,1,5,1,
{8}8,4,2,6,{4}8w4b[8:1],8b,
