&title=Flow Into You
&artist=ARForest
&first=0
&des=Flow of Cydazoline.
&des_5=Flow of Cydazoline.
&lv_5=14
&inote_5=(192){4},,,,,,,7h[8:3],
{8}5,5h[8:9],,6,{4}6,{8}7,8,
,8,{4}1h[4:1],{8}5,3,{4}7/1h[8:3],
{8}4,4h[8:9],,3,{4}3,{8}2,1,
,1,8,2h[8:1],{16}4,5,6,7,{4}8-4[8:1],
{8}5,5h[8:9],,6,{4}6,{8}7,8,
,8,{4}1h[4:1],{8}5,3,{4}7/1h[8:3],
{8}4,4h[1:1],,3,{4}3,{8}2,1,
,1,4x/8x,5x/1x,6x/2x,7x/3x,{4}4bh[8:11]/8h[4:1],
{8},7h[4:1],,,6h[4:1],,,6<1-6-8-3[8:5],
,,{4}B4,,5bh[8:11],
{8},2h[4:1],,,1h[4:1],,,8-6-1-7-4[8:5],
,,{4}C,,1bh[8:11],
{8},3h[4:1],,,5h[4:1],,,7-4-6-2[2:1],
,,8,1,2,3,{16}4,5,6,7,
{8}8h[16:3],{16}4,5,6,7,{8}8h[16:3],{16}5,4,3,2,{8}1h[16:3],{16}4,3,
2,1,{8}8-6-1-7-4[8:5],{16}2,,,2,,,{8}2-6b[8:1],{4}2b,
,,{2}3h[2:1],
{4},6h[8:3],,,4>5[4:7],
,,Ch[4:5],
,,,,,,,6qq7[8:13],
{8}4h[8:1],,,3h[8:1],,,{4}2h[8:1],
,1,{8},,,2qq3[2:3],
,,{4}E4`B3,{8},E5`B5,,,E7`B7,
,,8,,,{4}7p2[8:9],
{8}2h[8:1],,,3h[8:1],,,{4}4h[8:1],
,5>2[4:1],{8},,5h[4:1],{16}E1,E2,
{8}E3,6h[4:1],{16}E3,E4,{8}E5,7h[4:1],{16}6,5,{8}4,3h[4:1],
{16}6p4[2:1],5,{8}4,{4}2,,2h[4:1],
{8}5-7[8:1],3,{4}4,8,{8}6h[4:1],5,
{4}4-2[8:1],5,{8}1,4,3,5,
4-2[8:1],6,{4}5,{8}7,5,6-4[8:1],4,
{4}3,{16}2,3,{8}4,7<4[8:1],4-7[8:1],3b,2b,
,1,4V25[4:1],3,6b,7b,,8,
3,4,2/5,6,5,4/7<4[4:1],,3,
{4}2<7[4:1],{8}6,5>2[4:1],,1,{4}8qq5[2:1],
{8}4,3<5[8:1],,,,,{4}3x/6x,
4,4,{8}4,B7/A7,{4}5,
5,{8}5,A2/B2,{4}4-2[8:1],5,
5,5,{8}5,A2/B2,{4}4,
4,{16}3-6[8:1],4,3,4,{4}3,7/5,
4,2/4,{8}5-3[8:1],3,{4}6,
6,{16}6-3[8:1],5,6,5,{4}6,2x/4x,
{8}3,5x-7[8:1],{4}3,{8}2,4x-6[8:1],2,4x-2[8:1],
3,4xq5[8:3],{16}5,6,{8}7x,{16},,,,8x,1,2,3,
{8}4h[8:1],{16}1x,2,3,4,{8}5h[8:1],{16}2x,3,4,5,{8}6h[8:1],{16}3x,4,
5,6,7,8,1x/5x-3[8:1],6,7,8,{4}1b,{16}1x,8,7,6,
{8}5h[8:1],{16}2x<5[8:3],3,4,5,,,4x,3,2,1,{8}8,{16}4x,3,
2,1,8,7,1x<6[8:1],2,3,4,{4}5b,{16}3b/4,,,6b/8,
,,{8}1/2b,{16},3/5b-3[16:1],,,{4}6b,{16}7b/8,,,2b/4-2[16:1],
,,{8}6b,{16},7/1bx-5[16:1],,,{2}3b<2[8:9],
{4},5h[4:1],{8},6h[4:1],,,{2}7,
{8}6,5-7-1[4:3],{4}4h[4:1],
{8},3h[4:1],,,{4}2h[4:1],{8}4,3,
,6,7,8,1,2V86[4:3],{4}3h[4:1],
{8},4h[4:1],,,{4}5,{8}4,5,
3,6,{4}2,{8}3,4V28[4:3],{4}5h[4:1],
{8},6h[4:1],,,{4}7h[4:1],{8}5,6,
,3,4,2,8,1,7/2,6,
5,{16}3,4,{8}3,2,1,7b,,4,
6,{16}3,3,{8}5,3,2,1,5/2,{16}3,4,
{8}3,7/4,6,5,4/7,5,6,5/2,
4,3,{16}8,7,{8}6,3,{16}8,1,{8}2,4,
2b/8b,,,2<7[8:1],4,2,{16}6,5,{8}4-8[8:1],
3,4,{4}2h[8:15],{8},3x-8[16:1],,,7x-4[16:1],
,,3x-7b[16:1],,,{4}8x-4b[16:1],
{16},,5,6,{4}7,,7>7b[4:11]/3<3[4:11],
{1},,,{4},,{24}3,
2,1,8,7,6,3,2,1,8,7,6,
3,2,1,8,7,6,{4}3bh[4:1]/5b>6[2:1],{8},5xp4[16:5],,,{4}A6f,
{8}7-4[8:1],4x<7[8:1],7>6[2:1],2q7[8:3],{16},,,,,,,,,,,,2/5,
3,4,5,6/1,7,8,1,
{8}2p4[2:1]/4<1[2:1],E6,,,,,,,8/2h[8:1],
4h[8:1],3h[8:1],6h[8:1],5<3[2:1],7h[8:1],{24},,,,,,,,,4,
5,6,{4}7<4[4:1],{16}4<8b[4:1],3,2,1,{4}8>4[4:1],
4<7q1[8:5],Cf,{16},,8,1,2,3,{8}4h[8:3],
{4}2b,{16}1,2,3,4,5,6,7,8,{4}1qq6[2:1],
{8}2,3,{4}4<1[4:1],4b,{16}5,6,7,8,
2/1,3,4,5,{4}6pp7[4:1],{16},,4,3,{4}2>6[4:1],
6b<2[4:1],2V46[4:1],{8}6V82[4:1],8,{4}2<6b[4:1],
6>2b[4:1],{8}2,1,{24}8b,7,6,5,4,3,1b,8,7,6,5,4,
{32}8bw4[8:1],7,6,5,4,3,2,1,{4}8b,{16}2,8,2,8,2>5[8:1],1,3,1,
{4}2b,{16}7,1,7,1,7<4[8:1],8,6,8,{4}7b,
{16}3,5,3,5,3>8[8:1],4,2,4,{4}3b,{16}7p3[8:1],8,7,6,
{4}7b,{8}1h[8:1],3h[8:1],4h[8:1],8h[8:1],7h[8:1],5h[8:1],
{16}1b,8,7,6,5/1,4/8,3/7,2/6,{8}5h[8:1]/1<5[4:1],2,1b/3,4>8[4:1],
4,5x,6,7,{16}7b,6,5,4/1,2,3,4/7b,8,
1,2,3,4,{4}5h[8:3]/2qq6[2:1],,,8b<3[8:3],
3,{8}2,2,1-3[8:1],4,
1,7-5[8:1],4,7,1bh[8:1],8,{16}2,4,3,5,
4,6,5,7,5,4,3,2,1,8,5,4,3,2,1,8,
{4}7b-5[8:1]/3b-1[8:1],3/7-3-7[4:1],{8}2,1>8[8:5],{4}1bh[4:3],
,,,2/7,
3/6,4p5[1:1]/5<4[1:1],,,,,,5h[4:1],
{8},4h[4:1],,,6,{16}4,5,{8}3,6,
7,5,6,{16}6,5,{8}7,7q3[8:3],,7,
4qq2[8:3],,,6h[4:1],,,6,{16}1,8,
{8}2,7,6pp8[4:1],5,4h[4:1],{16},,,,7,5,
{8}6,3,4qq3[4:1],5,6,7,{4}8<6[8:1],
{8},5-2[8:1],,,7-4[8:1],,,5-1[8:1],
,,,4-7[8:1],,,{4}2-5[8:1],
{8},4-8[8:1],,,1-5[8:1],6h[8:1],{16},,8,4,
{8}8,2,7,3,{16}7/3,6/2,5/1,4/8,{4}3-6[16:1]/7-2[16:1],
E
