&title=Arcana Eden
&artist=Laur/Team Grimorire/削除
&first=0
&des=gl
&des_5=gl
&lv_5=14+
&inote_5=(211){4},,,,6h[2:1],
4,3,{8}5,5,
{4}2h[4:3],1,8,7,
3h[2:1],5,6,{8}4,4,
{4}7h[2:1],8,{2}1,
{1}8h[1:1]/B2/B3/Ch[1:1],
{4},,3,3,
2h[2:1]/B7/B6/Ch[2:1],,,3,
4,4,5,5,
6h[2:1]/B2/B3/Ch[2:1],,,5,
3h[2:1]/B7/B6/Ch[2:1],,,4,
5h[2:1]/B2/B3/Ch[2:1],,,4,
4/B7/B8/Ch[2:1],3,{2}2,
{4}B7/B6,C,B2/B3,{8}E4,B4,
{4}B5,E7,E1/B8/B1,E3,
B2/B3,C,B7/B6,{8}E6,E4,
{4}Ch[4:3],E2,E3,E4,
B7/B6,C,B2/B3,{8}E2,B1,
{4}B8,E7,B5/B4/E5,E3,
{1}Ch[4:1],
Ch[4:1],
8h[1:6]/1>1V35V71-4-7-2-5-8-3-6-1[4:23],
,,,,,,,{4}1-5[8:1],
{8}1/8,7<4[8:1],,7/2,1,8-3[8:1],
,6/8,{16}5,,,4h,,,{8}4h,6/2,7,
{4}8-4[8:1],{8}8/1,2>5[8:1],,2/7,8,1-6[8:1],
,3/1,{16}4,,,5h,,,{8}5h,7/3,2,
{4}1-5[8:1],{8}1/8,7<4[8:1],,7/2,1,8-3[8:1],
,6/8,{16}5,,,4h,,,{8}4h,6/2,7,
{4}8-4[8:1],{8}8/1,2>5[8:1],,2/7,8,1-6[8:1],
,3/1,4,5,{16}3h[8:1],,,2h[8:1],,,{8}1,
{24}1x-5[8:1]/8x-4b[8:1],2x/7x,{12}6x/3x,,{4}8b/1b/Cf,(422){64}1,2,{4},{16},,,{32},{64}8,
7,{4},{16},,,{32},{64}5,6,{4},{16},,,{32},{64}5,
4,{4},{16},,,{32},{64}4,3,{4},{16},,,{32},(211){4}1/8,
{16}3,4,3,4,{8}2/5,{16}8/1xh,2,3,4,5/6xh,7,
8,1,5x,4,3,2,1/8xh,7,6,5,1x,2,3,4,5,6,
7,8,1,2,{4}3qq4[4:1]/7qq8[4:1],,A4f/A8f,
5/6,{16}3h/4h,,,3h/4h,,,{8}4/3,5,5,
6,6,{16}1h[8:1]/8h[8:1],,,2h[8:1]/7h[8:1],,,{8}3/6,{16}8h[8:1]/7h[8:1],,,6h[8:1]/1h[8:1],
,,{8}5/2,{16}1h[8:1]/2h[8:1],,,3h[8:1]/8h[8:1],,,{8}4/7,{16}5h[8:1]/4h[8:1],,,6h[8:1]/3h[8:1],
,,{8}7/2,{4}8/1,{16}2-6-4-1[2:1],1,2,1,2bx,,,7bx,
,,{8}8bx,{4}6bx/A1f,{16}7-3-5-8[2:1],8,7,8,7bx,,,2bx,
,,{8}1bx,A8f/3bx-6[8:1],4x,3x,7,8/1,2,
{16}3,4,3,4,{8}2/5,{16}8x,7x,{8}3x/6x,{16}2,1,{8}2,6/3,
{16}7,8,{8}7,3/6,4,{4}5<8[8:1],{8}5/4,3,
2,7/1,6,5,4/3,5,{16}4,3,2,1,
5,6,7,8,{4}2b-4[8:1]/1b-7[8:1],2b-6[8:1]/1b-5[8:1],2b/1b,
{8}3/8,{16}2,1,{8}2,3/7,{16}2,1,{8}2,{32}7xh,B7,,,3xh,B3,,,6xh,
B6,,,4xh,B4,,,{16}8/1,7,6,5,4,3,2,1,8/4,5,6,7,
8,1,2,3,{4}4/5,{16}4,5,4,5,{12}3/6,,3/5,
,3/4,{24},,{8}2/5,3,{16}5,4,5,4,{8}6/3,7,
{6}6/5,6/4,6/3,{48}2,,,3,,,{16}4,5,6,7,8,1,
{8}2/6,{16}8,1,8,1,{8}8,2/7,3,4/6,6,
6,3/5,3,3,7/4,7,7,5/2,
2,2,4/5,3,2x/7b,{16}3,4,{8}3,2x/6b,
{16}3,4,{8}3,{4}2x/5b,{16}6/3,,,2/7,,,{8}8/1,
{16},,,,1-5[8:1]/8-4[8:1],7/2,{8}3/6,{4}1>3[8:1]/8<6[8:1],8/1,
{16}8x/7x-4[8:1],7x/8x,,,{4}7b/3-1[8:1],3/5-8[8:1],{16}5/4,,,2x/1x,
{4}2x-4[8:1]/1x-5[8:1],2b/1b,{16}2/7,,,1/8,,,{8}8/1,
{16},,2,3,{8}4/5,6,{2}3V16[2:1]/7V52[2:1],
{16},,,,,,,,2b-7[0.2133##0.0711],,,6b-3[0.2133##0.0711],,,{8}1b-4[0.2133##0.0711],
{16},5b-8[0.2133##0.0711],,,{8}2b,{16}1,7,1,7b-2[0.2133##0.0711],,,3b-6[0.2133##0.0711],,,8b-5[0.2133##0.0711],
,,1x,2x,{8}3x,{16}8x,7x,{4}6x/4,{12}5/3,,4/2,
,,8/2,2z6[4:3]/8s4[4:3],,,,,,,,,,,,,,,{4}2/1-5[8:1],
{8}1/2-6[8:1],3,
2/7-3[8:1],8,{4}7/4-1[8:1],{8}4/6-2[8:1],5,6/4>1[8:1],3,
4/7,{16}7,8,{4}7b-3[8:1],7/8-4[8:1],{16}8/7-3[8:1],6,{8}5,
{4}7/2-6[8:1],{16}2/5-8[8:1],,,3x,{4}5/3x-7[8:1],{16}3/5<8[8:1],,,2x,
{4}5/2x-6[8:1],2b/1,2/1-5[8:1],{8}1/2-6[8:1],3,
2/7-3[8:1],8,{4}7/4-1[8:1],{8}4/6-2[8:1],5,6/4>1[8:1],3,
4/7,{16}7,8,{4}7b,6/3,{16}3b,5,4,5,
4,5,2b,5,4,5,4,5,3b,4,2,6b,5,7,2,1,
3b,7,8,6,3b,4,{8}2,{4}1/8,{8}3,{16}3,4x,
,6,{8}5x,{16}3,4x,,6,{8}5x,{16}2,4x,,7,{8}5x,
{16}2,4x,,6,4,5,4,5,{32}4bxh[64:1],3h[64:1],2h[64:1],1h[64:1],8h[64:1],7h[64:1],6h[64:1],5h[64:1],{24}4bxh[48:1],3h[48:1],2h[48:1],1h[48:1],8h[48:1],7h[48:1],
6h[48:1],5h[48:1],4bx,3,2,1,8,7,6,5,4bx,3,2,1,8,7,6,5,{16}4bx,3,2,1,
8,7,6,5,{4}4bx,{2}5h[4:1]/4>4[4:27],
,4h[4:1],
,3h[4:1],
,2h[4:1],
,1h[4:1],
,8h[4:1],
,7h[4:1],
,6h[4:1],
{4},,5h[2:1],4,
3,{8}6,6,{4}2h[4:3],1,
8,7,3h[2:1],5,
6,{8}4,4,{4}7h[4:3],8,
1,2,{8}6,5,7,4,
8,3,1,2,8,1,7,2,
6,3,5,4,{2}5/Ch[4:1],
,Ch[4:1],
E6/B6/B3/E4/B5/E5/B4,{16}2/7b,3,4,5,6-2[8:1],7,8,1,
{4}2/6bx,{8}1,{16}1bh,8,7-3[8:1],6,5-1[8:1],4,{8}3/7bx,5bx,
{4}6bx,6h/3h,{16}7/2b,6,5,4,3-7[8:1],2,1-5[8:1],8,
{8}7/3bx,1bx,{16},,2b,3,4,5,6,7,{8}8/4,3,
{6}5h,5h,5h,{48}6/3h[32:1],,,2h[32:1],,,{16}1h[32:1],8h[32:1],7-3[8:1],6h[32:1],5h[32:1],4h[32:1],
{6}3/7bx,2,5,{12}4,5,3,6,2,7,
{6}1/8,7/2,6/3,{24}1,2,3,8,7,6,2,3,4,7,6,5,
{10}1bx,7bx,2bx,6bx,3bx,{70}5,,,,,4,,,,,{14}5,4,5,4,5,
{4}4b,2/7,{24}3,2,1,8,7,6,3,2,1,8,7,6,
{6}5/3,3/5,{24},{8}5/3,{12}4,5,{6}6x/3x,3x/6x,
7/2,{24}1,8,1s5[4:1],8,1,8,1,8,{2}1b,
{4}5/4,{12}3/6,5,4,{4}6/3,{8}2,7,
{4}1s5[8:1]/8z4b[8:1],1/8,{8}7/2,2,8,8,
1,1,7/8,7/8,6/1,6,3,3,
5,5,3/6,3/6,4/5,5/4,6/3,6/3,
7/2,7/2,1/8,1/8,{16}1,8,2,7,1-5[8:1],8,2,7,
{2}1b,1>6[4:13],
{4},,,,,,,,,,,,,,4/5h[4:1],
{8}3,2h[8:3],
,6,7,8,{4}1/2h[4:1],{8}6,7,
,8/1,8-4[1.9905##0.1422]/1-5b[1.9905##0.1422],7/2,{2}1h[4:5]/8h[4:5],
,,8b/1b,
{16}2/5,,,3,{8}4,2,
8/1,7,5/6,4/5,{16}3/4,,,1,{8}8,2,
{16}6/5,,,4,{8}5,3,{16}4/2,,,1/6,,,{8}8/7,
,1,8,{16}2b/7b,3/6,4/5,,,8,{8}7,1,
{32}2/8,3,4,5,6,7,8,1,2,3,4,5,6,7,8,1,{16}2/4,,,1,{8}8,2,
3,3,4/6-3[8:1],6/4,{4}6b/4-1[8:1],4b/8-5[8:1],
8b/2-7[8:1],6/2b,{16}3/4,,,5,{8}4,6,
2/7,8/1,7/2,6/3,{16}4/5,,,8,{8}1,7,
{16}1,8,2,7,3,6,4,5,{8}7b/2b,{16}1,8,{8}1,7,
6/5,{16}3,4,{8}3,7,8/1,7/2,6/3,5/4,
{16}5/1,6/2,7/3,8/4,{24}1,2,3,4,5,6,{8}7/2b,{16}1,8,{8}1,2,
{16}4/3bx,4/3bx,,5b/6,,,{8}8b/7,{4}1/2b,{16}8/4,7,6,5,
4/8x,3,2,1,8/4,7/3,6/2,5/1,4/8x,,,7/5,,,{8}2/4,
8/1,{16}2,1,{4}3b,{16}1/8,,,2/4,,,{8}7/5,
8/1,{16}7,8,{8}6b,5,4/3,5/4,6/5,4,
3,3,{16}2,7,2,7,{8}8/1,{32}2/8h[16:3],3,4,5,{8}6,{32}7/1h[16:3],6,5,4,
{8}3,{16}8,4h,{32}5h[64:1]/1-5[8:1],2/6h[64:1],3/7h[64:1],4/8h[64:1],1h[64:1],2h[64:1],3h[64:1],4h[64:1],{64}1b/5h/B1f,C,{32}B5,{1},{4},,,{16},,,{6}3,
3,4,
4,5,5,2/6,2,1,
1,8,8,7/3x,{12}2,6x,{6}2,
1,5b/1,5,6x/2,{12}7,3x,{6}7,
8,8/4b,4,6/1,{24}7,8,7,8,{12}7,6,
6,6,{24},,{8}4,4,{6}8/3,{24}2,1,2,1,{12}2,3,
3,3,{24},,{8}5,5,{6}4/2x,5/7x,3/1x,
6/8x,7b/2b,8,5/7x,4/2x,6/8x,
3/1x,2b/7b,3,{12}5,4,5,{48}4,,,5,,,{16}4,5,
{6}4,6b/3b,{24},,,,{8}6x/8,7x/1,8x/2,1x/3,
{6}4/2x,5b/4b,4,3/6,{24}4,5,{12}4,6,3,
{24}5,4,{12}5,{6}3b/6b,{12}7,2,8,{24}2,1,2,1,{12}2,{24}7,8,7,8,
7,8,{12}7,{6}6b/1b,{12}5,3,{6}5h[6:5],4,6,
7,8,1,3/2,{12},{4}4/1,
5/8,6/7,{32}7/6,5/8,1/4,3h[32:61]/2h[8:15],
E
