&title=モラトリアムノオト
&artist=東雲夏陽 Produced by シンゴ(マッカチン企画)&アラ
&first=0
&des=Yuuki
&lv_5=13
&inote_5=(182)
{1},
{16}
45,,,,3,,,,4,,4,,,,3,,
,,4,,3,,,,4,,4,,3,,3,3,
4,,,,3,,,,4,,4,,,,3,,
,,4,,3,,,,4,,4,,3,,3,3,
5h[8:2],,,,4,,,,6,,6,,,,75,,
,,6,,75,,,,6,,6,,75,,7,7,
4h[8:2],,,,5,,,,3,,3,,,,12,,
,,3,,12,,,,2,1,2,1,3,1,3,1,
4b^1[8:1],,,,8,,7^4[8:1],,,,1q2[8:2],,,,5,,
,,7,,7h[8:2],,,,5,,5,,58,,,,
7^4[8:1]/8,,,,8,,1^4[8:1],,,,6p5[8:2],,,,3,,
,,1,,1h[8:2],,,,4,,4,,2,5,3,5,
4b-1[8:1],,,,5-8[8:1]/4,,,,2-6[8:1]*-5[8:1]/5,,,,2,,,,
7-4[8:1],,,,7/2-5[8:1],,,,8-3[8:1]*-5[8:1]/2,,,,8,,,,
2b/4b,,2,,21,,2,,7b/3b,,7,,78,,7,,
1b,6,1,6,1,,7,8,7,,7,5,6,4,5,3h[16:45],
{8}
4b,,4,,4,,4,,
4,,4,,4,,4,,
5,,6,,7,,8^5[8:4],,
3,,3,,3,,3,,
6h[8:22]/4,,5,,5,,5,,
5,,5,,5,,5,,
4,,3,,2,,1-5[8:4],,
6,,6,,6,,6,,
8h[8:22]/4,,2,,2,,2,,2
,,2,,2,,2,,
3,,4,,5,,6>1[8:6],,
8,,7,,6,,5,,
8/4h[8:22],,8,,8,,8,,
7,,7,,7,,7,,
6,,6,,6,,6-2[8:1],,
5bpp5[8:4],,,,,,,,
1b-4[8:1]/4b,,5,,6-3[8:1],,2,2,
1-4[8:1],,5,,6-3[8:1],,2,2,
1-4[8:1],,5,,6-3[8:1],,2,1,
8-5[8:1],,5,,{16}7,4,7,4,6,5,6,5,
{8}7b^4[8:1],,2,,1q5[8:1],,5,6,
7^4[8:1],,2,,1q5[8:1],,5,6,
7^4[8:1],,2,,1q5[8:1],,5,6,
7^4[8:1],,4q8[8:1]*qq2[8:1],,,,{16}1,3,1,3,
{8}8b-4[8:1],,84,3,2-5[8:1],,26,7,
8-4[8:1],,84,3,2v5[8:1],,26,7,
8-4[8:1],,84,3,2p5[8:1],,26,7,
8-4[8:1],,8/2-7[8:1]*v5[8:1],,2,,64,3,
1b/2b,,82,2,72,2,26,2,
53,5,52,5,51,5,58,5,
5b/7b,,57,68,17,82,13,24,
5bw1[8:1],,,,73,7h[8:1]/3h[8:1],,,
1bq7[8:2]/8b,,7<1[8:3]/1,8h[8:3],,,,,
6-3[8:1],,2-7[8:1],,8-4[8:1],,4>6[8:2]/8,,
1,,3,3>5[8:2],,6,5p3[8:2],4h[8:3],
,,,,5^8[8:1]/2^5[8:1],,25,,
1b,,73,2V47[8:2]/6V41[8:2],,,,,
8bz4[8:1]/2,,1,1-6[8:1],,5-2[7:1],,5b/3b>6[8:2],
,,4,4,5-8[8:1],,5,,
{16}2,1,2,1,2,,5,3,5,3,5,,8,7,8,7,
{8}1bq7[8:2],,7<1[8:3]/1,8h[8:3],,,,,
6^3[8:1],,1q5[8:1],,7-2[8:1],,7/2V85[8:2],,
4b,,2,2V86[6:1],,4,4b-8[8:1],,
,,1h[8:2],,3h[8:2],,4h[8:2],,
5b,5^8[8:1],,1p5[8:1]/5,,4-8[8:1]/1,,2-5[8:1]/4,
,2/6^1[8:1],,3V14[8:2]*pp4[8:2]/6,,,,,
3b,,34,34,56,56,81,81,
{16}2,7,2,7,3,6,3,6,4,5,4,5,4,3,2,1,
{8}8b/7h[8:14],,,,,,,5,
5h[8:6],,,,,,,,
3b/4b,,42,42,75,75,81,18,
{16}2,1,3h[8:1],,5,4,6h[8:1],,8,7,1,6,2-6[8:6],5,3,4,
{8},,,,,,,,
{16}4b^1[8:1],,,,8,,7^4[8:1],,,,1q2[8:2],,,,5,,
,,7,,7h[8:2],,,,5,,5,,58,,,,
7^4[8:1]/8,,,,8,,1^4[8:1],,,,6p5[8:2],,,,3,,
,,1,,1h[8:2],,,,4,,4,,2,5,3,5,
{8}4b-8[8:1],4,5-7[8:1],5,4-1[8:1],4,5-8[8:1],5,
4-2[8:1],4,5-1[8:1],5,4,4,3/7,7,
8b/6b,5,26,5,3b/7b,4,31,4,
2b/6b,,34,54,56,78,12,3h[8:1]/4h[8:1],
,,,,,,,,
,,,,,,,,
,,,,,,,,
,,,,,,,,
,,,,,,,,
,,,,,,,,
,,,,,,,,
