&title=Panorama
&artist=IZ*ONE
&first=0
&des=Ars1band
&lv_5=13
&inote_5=(126)
{1},,
{16}E5,B5,B6,E7,,,,,E1,B1,B2,E3,,,,,
E6,B6,B7,E8,,,,,E2,B2,B3,E4,,,,,
{4}4bqq3[16:11]*pp5b[16:11]/Cf,,,,
{8},4,3,27,{16}1xh[16:3],3x,,,8xh[4:1],6x,,,
{4}2^8[8:1],3,4^2[8:1],5,
6^1[6:1],5,4^7[6:1],3,
2>6[16:3],1,8>4[16:3],7,
{16}6,,65,,54,,4,5,,34,,34,E5,,,,
{8}1,1,E7,3h[4:1],,,E6,4h[4:1],
,5,5qq7[8:3]/4,,4-8[8:1],,,,
1,1,7h[8:1],5,4h[8:1],6,6h[8:1],5,
{16}7/E5,,,7/E4,,,7/2pp5[16:8],,,,{8}6<2[16:4],6,,,,
1x-6[8:1]/3,,4,,8x^3[8:1]/7,5,
5,,4x-7[8:1]/2,,3V52-8[16:5],3,8x,,
{16}7,,7-4[8:1],,4,4,,,1-5[8:1],,5,5,,,8,,6-4-7-3-8-2[16:9],6,,,
{4},,,
{16}6h[16:3],,,5,6,,3,,2h[16:3],,,4,2,,7,,
{8}7qq8[8:3],3<1[16:5],3,,,,E1,,
{16}3h[16:3],,,5,3,,7,,7h[16:3],,,5,7,,1,,
{8}2^4[8:1],2,5p1[16:3],5,{16}6pp1[16:5],,,6,{4},
{16}3-1[8:1],,3,,8-3[8:1],8,,,6V48[4:1],,7,7,,,2,,
1-3[8:1],,1,,4-1[8:1],4,,,7V15[4:1]*V13[4:1],,6,6,,,,,
,,46,,7,8,7,,2,1,,1,2h[8:1],,4,,
24,,,18,,,57,,E6/E5/E4,,,,3x-8[8:1],4x,2x,,
{8}3bxqq6[8:3],,,,,5bx-1[8:1],,,7bxpp3[8:3],,,,,
4bxq8[8:1],,,2bxqq7[8:3],,,,,6bx^1[8:1],,,
{16}A2,E3,E4,A4,A8,E8,E7,A6,{24}3x,,4x,3x,,,{4}2bx/6bx,
{4}5bh[8:1]/4b,5h[8:1]/6,5h[8:1]/3,5h[8:1]/7,
4bh[8:1]/3b,4h[8:1]/5,4h[8:1]/2,4h[8:1]/7,
{8}1b/7b,6,53,2,{16}8b,3,7,2,6,1V36[16:6],5V72[16:5],8,
{1},
{4}Cf,
{16}27,,8,,1/7-4[8:1],,,8,7,,1,,
8/2-6[8:1],,,1-5-8-6b[16:5],2,1,,5x,{8},,
4-2[8:1],3,6-4[8:1],5,8-6[8:1],7,2-8[8:1],1,
3V52[16:3],4,73,,{16}8-4-6-1b[16:5],8,,38,{8},E4,E3,E2,
7-5[8:1]/8-4[8:1],,78,,2-5[8:1]/1-5[8:1],,21,,
{16}38,,2,2,,7x-4[8:1],,4x-8[8:1],,8x-3[8:1],,3x<1[4:1],,1x,,,
E4,,,C,,,E8,,,,17,,6<4[16:6],5,6,,
E6,,,C,,,E2,,1xh[16:3],3x,,,8xh[4:1],{32}6x,,A5,A4,A3,A2,
{4}1x^6[8:1],12,4^1[8:1],45,
7-5[8:1]/8h[16:1],7-4[8:1]/1h[16:1],7-3[8:1]/2h[16:1],37,
5^8[8:1],54,2^5[8:1],12,
6-8[8:1]/4h[16:1],6-1[8:1]/3h[16:1],6-2[8:1]/2-6[8:1],,
{16}17,,3-7[8:1],4,2V41[16:3],,3,,2x,,,,7,,7,,
82,,6-1[8:1],5,7V53[16:3],,6,,7x,,,,2,,2,,
36,,2-5[8:1],8,1V74-6[16:4],,2,,1x,,,,3,,3,,
{32}6x^1[8:1],5x,,,,,,,6xq2[8:1],5x,,,,,,,
{8}6xp4[4:1]*p4[4:1],,4x>6p4[64:119]`4?>6b[16:16],,
{1}Cf,,{8}E1,,,C,,,E5,,
6<3[2:1],,,,{16}A8,B8,C,B4,{4}A4,
6^3[8:1],7h[4:1],3^6[8:1],2h[4:1],
6-3[8:1],8h[4:1],3-6[8:1],13,
{8}5h[8:1]/4,4,5h[8:1]/6,6,5h[8:1]/3,3,5h[8:1]/8,8,
{16}67,,,45,,,23,,1/8pp5b[16:7],,,,{4}E8f,{1},
{4}E6/D7/A6/D6/A5/E4/D3/A3/D4/A4/D5/E5f,
{16}72,,1,,8/2^5[8:1],,,1,2,,8,,
4/6^1[8:1],,,5-2V48b[16:5],6,5,,8x,{8},,
5-7[8:1],6,8-4[8:1],1,3-1[8:1],2,8-4[8:1],7,
6V48[16:3],5,26,,{16}1-4-6-2b[16:5],1,,71,{8},E6,E7,E8,
1-5[8:1]/4-2[8:1],,B2f,,7-4[8:1]/4-8[8:1],,74,,
{16}61,,2,2-5-1-6>8[16:11],,8x,,5bx,,1bx,,6bx,,8bx,,7bx,
{16},,,,{24}7-3[8:1],,5,6,,,73,,,,,,1-5[8:1],,4,2,,,{4}1^6[8:1]/5,
{8}14,,{24}4xw8[8:1],3x,2x,7x,6x,5x,{4},
{48}1b/8b,2x/7x,3x/6x,5bx/4bx>5[16:29],,,{8},
{16},,E5/B4,,,,B1,B2,E3,,,,
,,B1/E1,,,,,,E8,,,,E6,,,,
4bx>8[16:10],,,,E8,B7,,,E1,,C,,E5,,,,
{24}7x,,5,6,,5,8x,,4,5,,4,1x,,3,4,,2,8x^5[8:1],,4,5,,,
{16}3^8[8:1],,,4,3/5^8[8:1],,5,,2^5[8:1],,,1,28,,7,,
{8}7-5[8:1],5-2[8:1],2-4[8:1],4-8[8:1],,,
{16}1x^6[8:1],1x^4[8:1],,1,,,,,
5x-2[8:1],5x-8[8:1],,5,,,,,{8}A2/D3/A3/E3,A7/D7/A6/E7,,
5h[8:1]/6,8h[8:1],2,
{48}8b/2,7x,6x,,,,,,8b/3,7x,6x,,,,,,,,
8b/4b,7x/3x,6x/2x,5xV72[16:6]/1xV36[16:6],,,,
E
