&title=星屑ストラック
&artist= t+pazolite
&first=1.587
&des=MiraT
&lv_5=14
&inote_5=(220)
{16}5,4,5,4,5,,2,,27,,,,,,,,,,,,,,,,
{16}45,,6,5,6,,45,,3,4,3,,Ch[4:1],,,,E7/E3,,,,,,,,,,,,,,,,
{8}18,,6,5,6,74,,3,34,,,,,
{16}1,,E8,E7,E6,E5,E4,,2,,1,,3,,8,1,27,,,,,,
{8}1-5[8:1],,,6-2[8:1],,,3-7[8:1],,,8-4[8:1],,,1,,27,,
{8}5,,46,,2,2h[2:1],,5,,6,36,,4-2[8:1],,7,,
{48}E8,B7,B6,E6,,,{8},1,1,,3,3,,
{16}6xh[8:1]/4xh[8:1],,,6xh[8:1]/4xh[8:1],,,6x/4x,,6x/4x,,,,C,,,,
{8}4,,53,,7,7h[2:1],,4,,3,63,,5-7[8:1],,2,,
{8}1-5[8:1],,6,6-2[8:1],,3,3-7[8:1],,8,8-4[8:1],,1,1,,27,,
{8}3,4,2,6,5,7,1,8,2,1,3,7,8,6,4,5,
{16}2,6,2,6,3,7,3,7,4,8,4,8,5,1,5,1,
{16}5-1[8:1],,8x,7x,6x,,4-8[8:1],,1x,2x,3x,,5,,,,
{4}4h[4:1]/6,8,5h[4:1]/3,1,4h[4:1]/6,8,5h[4:1]/3,1,
{16}5,6,7,8,5-1[8:1],4,3,2,5,,,,4,,,,
{16}7,,1,8,1,,27,,{12}2,4,3,7,5,6,
{4}C,8,5h[4:1]/3,1,4h[4:1]/6,8,5h[4:1]/3,1,
{8}Ch[8:9]/E2,,,E4,,,E6,,,E8,,,{16}6,,1,8,2,,7,,
{4}3/7-4[8:1],1x,6/2-5[8:1],8x,3/7-4[8:1],1x,6/2-5[8:1],8x,
{16}8,7,6,5,8-4[8:1],1,2,3,8,,,,1,,,,
{16}6,,3,4,3,,25,,{12}7,5,6,2,4,3,
{4}7-4[8:1],1x,6/2-5[8:1],8x,3/7-4[8:1],1x,6/2-5[8:1],8x,
{4}Ch[1:1],,,,,1w5[8:1],1,3b/7b,
{16}3<6[8:1],,,5,3,,7,,1,8,1,,7,,27,,
{16}3,4,2,5,3,,6,5,7,4,6,,E3,,E7,,
{16}4-8[8:1],,,6,4,,5,,2,1,2,,8,,38,,
{16}7,1,7,1,,2,3,4,5xh[4:1],,,,B3/B4/E4,,,,
{16}8<5[8:1],,,1,8,,2,,4,3,4,,2,,25,,
{16}7,8,6,8,7,,2,1,3,1,2,,E8,,E2,,
{16}6-2[8:1],,,4,6,,3,,8,1,7,,3,,35,,
{4}Ch[4:2],,,2b/7b,
{16}6>3[8:1],,,4,6,,2,,8,1,8,,2,,72,,
{16}6,5,7,4,6,,3,4,2,5,3,,E7,,E3,,
{16}5-1[8:1],,,3,5,,4,,7,8,7,,1,,61,,
{16}2,8,2,8,,7,6,5,4xh[4:1],,,,B6/B5/E6,,,,
{16}18,,7,8,,8,6,,18,,2,1,,1,3,,
{16}45,,6,5,,5,7,,45,,3,4,,4,2,,
{16}5x,1,6x,2,7x,3,8x,4,{32}1x,2,3,4,5,6,7,8,1,2,3,4,5,6,7,8,
{4}1b>8[2:1],,,,
{4}2-6[1:3],,,,,,,,,,,,,,,,
{4}7-3[1:3],,,,,,,,,,,,,,,,
{4}45,53,64,52,74,61,38,27,
{4}18,17,28,16,38,25,47,36,
{8}35,3,64,6,25,2,74,7,35,4,64,5,25,3,47,6,
{16}45,3,2,1,4,5,6,7,
{32}E4,E3,E2,E1,E8,E7,E6,E5,E4,E3,E2,E1,E8,E7,E6,E5,{8}E4/Cf,,,,,,
{8}5,4,6h[1:1],,,,3,,,,2>5[2:1],,,,6,,6,,
{8}7p4[8:5],,1,1,,2,,2h[8:5],,,,,,,18,,
{8}64,,E8,B4/E4,,E6,E2/B2,,35,,E2,E6/B6,,E4,E8/B8,,
{8}45,,E3,E7/B6,,E1,E5/B4,,{16}18,,2,1,3,,5,4,,4,6,,8,7,8,7,
{8}1q5[8:1]/6,,6,6q2[8:1],,3,3,,
{8}8p4[8:1],,2,2V46[8:1],,7,7,,
{8}8-4[8:1],,2,2>5[8:1],,7,7,,,
{16}3,4,3,,5,,25,,6,,74,3,2,1,
{8}8x-4[8:1],,2x-5[8:1],2,7x-4[8:1],7,1x-5[8:1],1,
{8}8x-4[8:1],8,2x,2,7x,{16}1,8,2x/7x,,,,
{8}7b-4[8:1],,7b/8b,1bw5[8:1],,1b>8[8:5],,1b,,,,,,,2b/7b,,
{8}84,3,25,6,73,2,16,7,82,3,74,6,15,2,83,7,
{16}6/2-4[8:1],,7,6,2-8[8:1],,6,5,2-6[8:1],,7,6,2,,8,,
{16}7-5[8:1],,2,3,7-1[8:1],,3,4,7-3[8:1],,2,3,7,,1,,
{8}15,6,74,3,26,7,83,2,17,6,25,3,84,7,16,2,
{16}8<6[8:1]/3,,2,3,8-4[8:1],,2,3,8-5[8:1],,2,3,8,,1,,
{16}7,,2,,6,5,4,3,2x-5[8:1]/7x-4[8:1],,,,2b/7b,,,,
{16}6,,3,4,2,,17,,6,5,7,,2,,28,,3,4,2,4,3,,6,5,7,6,5,,1,8,27,,
{16}45,,2,5,3,,7,4,6,,2,8,3,,7,1,6,,1,8,2,7,3,6,4,,8,,2b/7b,,,,
{8}45,45,34,34,23,23,12,12,{16}8,7,6,5,4,3,2,1,{32}84,5,6,7,8,1,2,3,
{8}4/8b,,2b-5[8:1],,2b/1b,8bw4[8:1],,8b<1[8:5],,8b,,,,,,,,,
{4}4h[4:1]/6,8,5h[4:1]/3,1,4h[4:1]/6,8,5h[4:1]/3,1,
{16}5,6,7,8,5-1[8:1],4,3,2,5,,,,4,,,,
{16}7,,1,8,1,,27,,{12}2,4,3,7,5,6,
{4}C,8,5h[4:1]/3,1,4h[4:1]/6,8,5h[4:1]/3,1,
{16}8,7,6,5,8-4[8:1],1,2,3,8,,,,1,,,,5,4,5,4,6,4,6,4,7b-3[8:1],,,,,,,,,,,,,,,,
{8}E7,E3,,E1,,E5,C,,E6/E2,,E8/E4,,E7/C/E3,,,,
