&title=Abyss Breaker
&artist=打打だいず
&first=0
&des=Charholer
&lv_5=14+
&inote_5=(194.999){8},
(195.001){8},
(195){4},,,,,,,
{48},,,,,,,,,8b,7x/1x,6x/2x,5hx[4:7]/3x,4x>6<4[4:13],,,,,,,,,,,
{4},,,,,,,5h[4:5],,,,,,6,7,8>6[4:7]/2h[4:5],,,,,,2,3,
{4}4b-1[8:1],,8b-5[8:1],,6b-3[8:1]/2b-7[8:1],,2b-5[8:1]/6b-1[8:1],,
{8}6h[4:3],,1,1,2,2,3,3,3/5,6,7/4,3,2/6,7,8/3,,
{16}2b/1b,,,,2,1,2,1,3,8,3,8,4,7,4,7,5,6,5,6,4,5,4,5,3,4,3,4,2b,,,,
{16}5b/6b,,,,6,5,6,5,7,4,7,4,8,3,8,3,1,2,1,2,8,1,8,1,7,8,7,8,6b,,,,
{16}2b/1b,,,,3,8,4,7,5,6,4,5,3b,,,,
{16}5b/6b,,,,7,4,8,3,1,2,8,1,
{32}7b,6,5,4,3,2,1,8,
{8}7/Cf,,4,4,6,7-4[8:1]/3v8[8:1],,7/3,,5/1,5pp8[16:5]/1pp4[16:5],,,,,,
{8}7b/3b,,5>2[8:1],,6,7-4[8:1],8,1h[8:2],,3,
{8}4,5<8[8:1],,3,2,1-5[8:1],,8,7,6h[4:1],,5,3,1pp5[8:3],,
{8}5,5,6,7,8,{16}2,1,2,,{8}8/3,7,6,5/1,,
{8}2-5[8:1],1,2,,7-4[8:1],8,7,,
{8}1-5[8:1],8/2,1,,8-4[8:1],1/7,8,,
{8}3/5,6/2,1b/7b,,{16}1,8,1>8[16:5],8,1,8,1,,,,,,,,
{8}1bx/5bx,,4-7[8:1],,3,2-6[8:1],1,8h[8:2],,5,
{8}4,3-8[8:1],,4,5,6-8-4[4:1],,1,2,3b-1-5[4:1],,8,7,6b,,
{16}4,5,3,6,2,7,1,8,1,8,
{12}1b,,,
{12}8h[12:1]/1h[12:1],,2h[12:1]/4h[12:1],,7h[12:1]/5h[12:1],,1/8,,3,3,3/4,,
{12}1h[12:1]/8h[12:1],,7h[12:1]/5h[12:1],,2h[12:1]/4h[12:1],,8/1,,6,6,6/5,,
{12}1hb[12:1]/2hb[12:1],,5hb[12:1]/4hb[12:1],,8hb[12:1]/7hb[12:1],,
{12}1hb[12:1]/3hb[12:1],,5hb[12:1]/3hb[12:1],,5hb[12:1]/7hb[12:1],,
{4}1b-5[8:1]/7b-3[8:1],,8b-4[8:1]/2b-6[8:1],,
{16}7h[4:1]/8,1,2,3,4,,4h[4:1]/5,6,7,8,1,,
{16}2h[4:1]/1,8,7,6,5,,5h[4:1]/4,3,2,1,8,,
{8}7h[16:1]/8h[16:1],7h[16:1]/8h[16:1],6h[16:1]/1h[16:1],5h[16:1]/2h[16:1],
{16}3h[4:1]/4,5,6,7,8,,8h[4:1]/1,2,3,4,5,,
{16}6h[4:1]/5,4,3,2,1,,7,,6,,5/4,,
{16}6/3,,2,7,1,8,2,,
{16}3h[4:1]/4,5,6,7,8,,8h[4:1]/1,2,3,4,5,,
{16}6h[4:1]/5,4,3,2,1,,1h[4:1]/8,7,6,5,4,,
{8}2h[16:1],4h[16:1]/2h[16:1],4h[16:1]/5h[16:1],5h[16:1]/7h[16:1],
{16}1h[4:1]/8,7,6,5,4,,4h[4:1]/3,2,1,8,7,,
{16}6h[4:1]/7,8,1,2,3,,3h[4:1]/4,5,6,7,8,,
{32}E3,B3,B4,E5,E7,B6,B5,E5,1,2x,3x,4x,5x,6x,7x,8x,
{8}1hx[8:1]/5,6,7/3h[8:1],6,5/1h[8:1],,
{8}2/6h[8:1],3,4/8h[8:1],3,
{16}2h[32:1],6h[32:1],1h[32:1],7h[32:1],
{24}2,3,4,8,7,6,{8}1/5,1,
{8}7-3[8:1],7,8-4[8:1],8,1-5[8:1],1,2-6[8:1],2,
{16}7h[16:1],,7h[16:1],,
{16}2,1,3,1,2h[8:1],,5,4,6,3,7,,
{8}1/8,1/8,2/3,2/3,5/4,5/4,7/6,7/6,
{8}8/1,2/4,5/7,8/1,
{16}2,2,7,7,{32}E3,B3,B4,B5,E6,,,,
{16}8,1,8,1,7,2,7,2,5,4,6,3,7,2,
{24}8,7,6,1,2,3,7,6,5,2,3,4,8,7,6,
{32}1,2,3,4,5,6,7,8,
{48}1,2,3,4,5,6,7,8,1,2,3,4,
{4}5p2[4:5]*q8[4:5],,,,,,,
{8}3,3,3q4[2:1]/6,,,,,,7,7,7q8[2:1]/2,,,,,,,,
{8}1h[1:1],,,,,,8,8h[8:7],,,,,,,2,2,2q3[2:1],,,,,,5b,4hb[4:1]/5hb[4:1],,,
{24}3x/6x,2x/7x,1xz5[24:6]/8xs4[24:6],,,,,,,,,,,,,,,,
{16}3b/8b,,2,1,,1,3,,3,5,,5,8,,7/8,,
{16}6b/1b,,7,8,,8,6,,6,4,,4,6,3,7,2,
{16}8b,,2,1,,7,8,,3,1,,6,8,,8/1,,
{16}6b,8,7,1,8,2,1,3,
{16}4,2,5,3,6,4,7,5,
{4}8h[4:3],2,3,{8}4,4,
{8}4h[2:1]/5,,6,,7,7,{16}1,8,1,8,
{16}2,4,3,7,5,6,3,4,2,6,5,7,2b,,,,
{16}2h[8:1]/1h[8:1],,,8h[8:1]/3h[8:1],,,7/4,,
{16}1h[8:1]/8h[8:1],,,7h[8:1]/2h[8:1],,,{24}6/3,E3/E7,B2/B7,B1/B8,,,,,,
{16}2b,6,5,6,5,6,1b,5,4,5,4,5,8b,4,3,4,3,4,
{16}1b,5,2,6,3,7,4,8,C,,,,,,
{16}3,4,1,6,5,8,{32}3,4,5,6,7,8,1,2,3bq6[8:3],,,,
{8},,,,7h[4:1],,5-1[8:1],4,
{8}5/3hb[4:1],,8,7,2/5,2h[4:1]/5,4,3v8[8:1],
{8},3,6,7-4[8:1],,7/8,1,2-6[8:1],
{8},2,8,8h[4:1],,5,3,1h[4:1],
{16}7,6,5,4,5,6,7,8,
{16}1/4,3,2,1,6,5,6,5,
{8}7,8,1,7/2,,
{8}7-3[8:1]/3-8[8:1],8,7/3,,2-6[8:1]/6-1[8:1],1,2-5[8:1]/6,,
{8}7-3[8:1]/2-8[8:1],8,7-4[8:1]/2,,2-6[8:1]/7-1[8:1],1,2/7,,
{8}7<4z8[16:7]/2>5s1[16:7],1/8,7/2,,,,,
{8}2h[4:1],,4-8[8:1],5,
{8}4/6hb[4:1],,1,2,7/4,7h[4:1]/4,5,6v1[8:1],
{8},6,3,2-5[8:1],,2/1,8,7-3[8:1],
{8},7,1,8-2-4[4:1],,5,6,7b,,
{16}8,5,8,4,8,3,8-4[8:1],2,8,1,
{12}8b,,,
{12}6h[12:1]/5h[12:1],,1h[12:1]/8h[12:1],,3h[12:1]/4h[12:1],,7/6,,1/2,1/2,1/2,,
{12}3h[12:1]/4h[12:1],,8h[12:1]/1h[12:1],,6h[12:1]/5h[12:1],,2/3,,8/7,8/7,8/7,,
{12}1hb[12:1]/2hb[12:1],,4hb[12:1]/6hb[12:1],,8hb[12:1]/1hb[12:1],,
{12}3hb[12:1]/5hb[12:1],,7hb[12:1]/8hb[12:1],,2hb[12:1]/4hb[12:1],,
{4}5b-1[8:1]/6b-2[8:1],,3b-7[8:1]/4b-8[8:1],,
{16}1b/6,2,3,4,1,8,7,6,
{16}3,2,1,8,5,6,7,8,
{16}2,3,4,5,1,2,3,4,
{16}1,2,3,4,5/1,6,7,8,
{4}1-5[8:1]/5,1/7-3[8:1],7/2-8[8:1],2/6-4[8:1],
{4}6/1-3[8:1]*v4[8:1],1-7[8:1]*v6[8:1],{8}1,,3/4,5/2,
{16}1b,8,7,6,8,7,6,5,
{16}3,2,1,8,4,3,2,1,
{16}4,3,2,1,8/4,7,6,5,
{16}4/1,8,7,6,5/1,4,3,2,
{8}1/4-8[8:1],4,5-1[8:1],5,6-2[8:1],6,7,7,
{16}1,8,2,7,{24}1>5[4:1],8,1,8,1,8,
{4}1,{32}A1,D1,A8,D8,A7,D7,A6,D6,
{16}1b,2,3,4,7,6,5,4,
{16}2,8,2,8,3,7,4,6,
{16}3b,4,2,5,3,6,4,7,
{16}2,3,4,5,8,7,6,5,
{16}1b,7,1,7,2,8,2,8,
{16}3,6,4,5,3,6,2,7,
{16}1b,8,2,7,1b,8,3,6,
{24}4b,3,2,1,8,7,4b,3,2,1,8,7,
{8}2b>5[8:1],1b<6[8:1],2b,1b,
{32}A2,D3,A3,D4,A4,D5,A5,D6,A6,D7,A7,D8,A8,D1,A1,D2,
{8}7b<4[8:1],8b>3[8:1],7b,8b,
{16}7,6,5,4,8,1,2,3,
{8}4/7-4[8:1],7,7/2-5[8:1],2,
{8}2/6-1[8:1],6,6/3,3,
{16}7b,2,8,1,6b,3,7,2,5b,4,6,3,
{4}Cf,
{16}1b,8b,1b,8b,1b,8b,1b,8b,1b,8b,1b,8b,1b,8b,1b,8b,
{24}2,3,4,5,6,7,4/8,5/1,6/2,7/3,8/4,1/5,
{32}2/6,7,8,1,2,3,4,5,
{32}A6/E7,A7/E8,A8/E1,A1/E2,A2/E3,A3/E4,A4/E5,A5/E6,
{1}Cf,,{4}D2,D3,D4,D5,E6,E7,E8,E1,Ch[16:1]/A7/B7/B6/A6/A2/B2/B3/A3,
E
