&title=徳川カップヌードル禁止令
&artist=Mitchie M feat.草薙寧々&ネネロボ × ミクダヨー&鏡音レン&KAITO
&first=0
&des=ナユロボ
&lv_5=13+
&inote_5=(178){1},
{8}4,3,2,1,8,7,6,5,
{16}4,5,6,7,8,1,2,3,4,5,6,7,8,1,2,3,
{8}4b,8,7,6,4xV25[4:1],4x,,,
{8},6,,6,1x-4[8:1],8x-5[8:1],,,
{8},4,3,2,8xV64[4:1],8x,,,
{8},2,,2,5x-7[8:1],4x-2[8:1],,,
{16}8x,,1x,,7,5,6,,4,5,4,,6,5,6,,
{16}4,5,4,,6,5,6,,3,5,4,,7,5,6,,
{16}2,4,3,,6,4,5,,1,,1,8,1,,2x-5-1[2:1]/7x-4-8[2:1],,
{1},
{4}2,3/4,7,6/5,
{8}1^4[8:1],,8^5[8:1],,C,1b,1b,,
{8}3/4,,8,,6/5,,1,A6/D7/E7,
{8},A3/D3/E3,,8v7[8:1],8,,1bx,,
{4}2,4/3,7,6/5,
{4}2-6[8:1],8-4[8:1],4w8[8:1],,
{8},1xh[8:1]/8xh[8:1],,1x/8x,3x/6x,1x/8x,3x/6x,1xh[8:1]/8xh[8:1],
{8},1x/8x,3x/6x,1x/8x,3x/6x,7bxh[16:3],,,
{4}1-3[4:1],8,7-1[4:1],6,
{4}5-7[4:1],4,3-5[4:1],2,
{4}1-3[4:1],8,7-1[4:1],6<2v4b[2:1],
{1},
{4}8<4[4:1],4>8[4:1],8<4[4:1],4>8[4:1],
{8}8<4[4:1],,4s8[4:1],,2x,1b,1b,,
{4}1>5[4:1],5<1[4:1],1>5[4:1],5s1[4:1],
{4}7x,6x-8b[8:1],6bx/5bx-1b[8:1],5bx/6bx,
{4}8,7/5,1,2/4,
{4}6xq3[4:1]/3x^6[4:1],,,8bx^1v7[2:1]*^1v3[2:1],
{4},,,8<2[1:1],
{8}1b,1b,1b,1b,1b,1b,1b,1b,
{4}1xs5[4:1]*s5[4:1],,,5xh[4:3]/4xh[4:3],
{4},,,4bx/5bx,
{32}7x/2x,8xh[32:7]/1xh[32:7],,,,,,,,,,,,,,,7x/2x,8xh[32:7]/1xh[32:7],,,,,,,,,,,,,,,
{32}7x/2x,8xh[32:3]/1xh[32:3],,,,,,,7x/2x,8xh[32:3]/1xh[32:3],,,,,,,7x/2x,8xh[32:3]/1xh[32:3],,,,,,,7x/2x,8xh[32:3]/1xh[32:3],,,,,,,
{32}2x,1xh[16:1],,,7x,8xh[16:1],,,2x,1xh[16:1],,,7x,8xh[16:1],,,2x,1xh[16:1],,,7x,8xh[16:1],,,2x,1xh[16:1],,,7x,8xh[16:1],,,
{16}2xh[16:1],7xh[16:1],1xh[16:1],8xh[16:1],2xh[16:1],7xh[16:1],1xh[16:1],8xh[16:1],,,,,1x-3[8:1]/8x-4[8:1],,,,
{8}8bx-6[8:1]/1bx-5[8:1],,1bx/8bx,,1-5[8:1],7-3[8:1],1x,7x,
{8},2,3,4,5x/7x,8bx,4x/2x,1bx,
{16}8,,1xh[16:3]/7x-5b[16:1],,,,,,3,4x,,2,1x,,3bv5b[4:1]*-1-5b[4:1],,
{8},,,,6bx,7,8bx-6[8:1]/1bx-5[8:1],2,
{8}1bx-3[8:1]/8bx-4[8:1],,8bx/1bx,,7-3[8:1],1-5[8:1],7x,1x,
{8},6,7,8,1x/3x,2bx,8x/6x,7bx,
{16}1,,8/2,,7/3,,6/4,,5,5x,,3,3x,,7b-3b[8:1],,
{8}3bx>4b[4:1],7bx,,,,1b,1b,,
{8}6x/5x>8[4:1],,8,6,4x<1[4:1],,1,3,
{8}5x>8[4:1],,8,6,4x<1[4:1],,1,3,
{8}5x>1[4:1],,1<5[4:1],,5x<3b[8:3],,Cf,,
{4},,7/2,1-5[8:1]/8-4[8:1],
{8}1bx^6[8:1]/8bx^3[8:1],,1bx-5[8:1]/8bx-4[8:1],,1bx/8bx,,7b/2b,7b/2b,
{8},1/8,2,3,4x/5x,6x/3x,7xh[8:1]/2xh[8:1],,
{16}1b/8b,,6,5,7x/4x,,7x/4x,,1b/8b,,3,4,2x/5x,,2x/5x,,
{16}5b/7b,,,2b/4b,,,3b/6b,,5b-8[8:1]/4b-2[8:1],,,,5x/4x,,,,
{12}1x,2,3,4,5,6,7,8,1,2,3,4,
{1}5w1[2:1],
{4},3h[4:3],,4,
{4}6h[4:3],5x,5x,,
{4}3h[1:1],4,,4,
{4}6h[4:3],5x,5x,C,
{4}1h[4:1],2h[4:1],3h[4:1],4h[4:1],
{4}5h[4:1],6h[4:1],7h[4:1],8h[4:1],
{8}1w5[4:1]*w5[4:1],,A1f,,,,2,3,
{8}4b,5b,6b,7b,8bh[8:3]/1bh[8:3],,,,
{1}Ch[4:3],
{2}1b/8b-5[8:1]*-3[8:1],1b^4[8:1]*^6[8:1]/8b,
{32}5bw1[8:1],,,,,,,,5b,,,,,,,,4b-8[12:1]*w8[12:1],,,,,,,,4b,Cf,,,,,,,
{8}4bx,5bx/3bx,2bx/6bx,1bx/7bx,4bx,5bx/3bx,2bx/6bx,1bx/7bx,
{32}4bx,,3bx,,2bx,,1bx,,4bx,,5bx,,6bx,,7bx,,4bx,3bx,2bx,1bx,4bx,5bx,6bx,7bx,4bx,3bx,2bx,1bx,4bx,5bx,6bx,7bx,
{8}E1f,,1x^4[8:1],,8^5[8:1],7,1^4[8:1],2,
{8}8^5[8:1],7,1,2,3x/4x,2bx,6x/5x,7bx,
{16}8,,1xh[16:3]/7x-5[16:1],,,,,,3,4x,,2,1x,,3xv5[4:1]*-1-5[4:1],,
{8},,,,6x,7,8x/1x>1[4:5]*<1[4:5],2,
{1},
{8},,,,1x/3x,2bx,8x/6x,7bx,
{16}1x,,8x/2x,,7x/3x,,6x/4x,,5xh[16:1],,,3xh[16:1],,,7x-3[8:1],,
{8}3x>4[4:1],7x,,,,1b,1b/8b,,
{16}B3f,B3f,B3f,B3f,B3f,,,,6x-8[8:1],,,,3-1[8:1],,4,,
{8}6-8[8:1],5,3,4,5x/3x,1b,6x/4x,8b,
{16}1,,8/2,,5/3,,6/4,,7,8x,,6,5x,,7bpp6b[4:1],,
{8},,,,5x/4x,3,2x/1,8,
{8}1bxh[8:1],3bxh[8:1],7bxh[8:1],5bxh[8:1],1h[8:1],3h[8:1],7h[8:1],5h[8:1],
{8}1,6,7,8,1x/3x,2b,8x/6x,7b,
{16}1,,8/2,,7/3,,6/4,,5,5x,,3,3x,,Chf[8:5]/7xh[8:5],,
{8},,,,,1b,1b,,
{32}4x/5x<3[4:1],,,,,,,,2,D7,,,3,,,,4x>6[4:1],,,,,,,,7,D3,,,6,,,,
{32}5x<3[4:1],,,,,,,,2,D7,,,3,,,,4x>6[4:1],,,,,,,,7,D3,,,6,,,,
{32}5x<1[4:1],,,,,,,,1>5[4:1],D7,,,,,,,5x>6b[8:3],,,,,,,,Cf,,,,,,,,
{4},,7/2,1-5[8:1]/8-4[8:1],
{8}1bx<5[8:1]/8bx>4[8:1],,1bx-5[8:1]/8bx-4[8:1],,1bx/8bx,,7b/2b,7b/2b,
{8},1/8,7,6,4x/5x,6x/3x,7xh[8:1]/2xh[8:1],,
{16}8b/1b,,2,4,3,,2x/5x,,8b/1b,,7,5,6,,7x/4x,,
{32}1b/8b,,,,,,7b/6b,,,,,,2b/3b,,,,4bw8[12:1]/5b,,,,,,,,4bx,Cf,,,,,,,
{16},,1,,2,,3,,4/7,,6-1[8:1],5,6,,2x-5[8:1],,
{8},8x-4[8:1],,2,1x-3[8:1],1x-5[8:1],,,
{16},,4,,3,,2,,1/6,,7-4[8:1],8,7,,3x-8[8:1],,
{8},5x-1[8:1],,3,4x-2[8:1],4x-6[8:1],,,
{16},,1,,8,,7,,6/3,,4-8[8:1],5,4,,7x-3[8:1],,
{8},2x^5[8:1],,7,8x-6[8:1],8x-4[8:1],,,
{16},,5,,4,,3,,2/7,,8-4[8:1],1,8,,3x,,
{16},,1/8,,2/7,,3/6,,1bx,1b,1b,1bxs5b[16:3],,,,,
{1},
E
