&title=TAIDADA
&artist=ずっと真夜中でいいのに。
&first=0.18
&des=HPjun
&lv_5=13
&inote_1=
&inote_5=(144)
{8},,,,,,,
{32}E4,B4,B5,E6,,,,,
{8}B2/E3,
{16}B5,B1/E2,,B6,
{16}B3,E8,B2,E6,E3,7x,
{16}2x,8x,1xb>4[8:1],,8,8,1,,7,5,6,4,5,3,,5,4,5,3>8[8:1],,5,5,3,,7,7,1,8,2,1,,2,7,1,8<5[8:1],,1,1,8,,2,4,3,5,4,6,,4,5,4,6<1[8:1],,4,4,6,,2,2,8,1,7,8,,46,46,,5<8[8:1],,4,4,5,,3,1,2,8,1,7,,1,8,1,7<4[8:1],,1,1,7,,3,3,5,4,6,5
,,6,3,5,4>1[8:1],,5,5,4,,6,8,7,1,8,2,,8,1,8,
{16}B1/B2/E2f,,,E7/B6/A6f,,,B3/E3f/B2,,,B8/B7/E8f,,,E3/B3/A3f,,Cf,,
{8}2xqq4[2:1],,6,,6,,6,7,7x<4q8[2:1],,3,,3,,3,4,4xv3-1[2:1],,7,,7,,7,8,8xv5<7b[2:1],,1,,2,,3bh[2:1],,4,5,6h[4:1],,3,2,1>5[4:1],,5<1[4:1],,1>5[4:1],,5-1[4:1],,7h[2:1],,,,,1,1,2-4[8:1],2-6[8:1],,Cf,,,,,,
,18,
{16}2,4,3,,6,5,7,,1-4[8:1],1,,7h[16:3],,,,,46,,3,,28,,7,,6,,4-8[8:1]/5h[4:1],,,,,,5,,2,,2,,6<1[4:1],,4,4,,3,,,2-5[8:1],,2,,7-4[8:1],,7,,3-8[8:1],,3,,6-1[8:1],,6,,4-8b[8:1],,4,,,,
{24}7x,,7x,,6x,,6x,,,
{8}5x-8[4:1],4,3h[4:1],,,,4h[8:1]/7h[8:1],,6h[2:1]/5,4,3,,3,2,1-5[8:1],,8-4[8:1]/1,,1>8[2:1]/8,,,,,,,6<1b[2:1],6,4,4,4h[8:3],,,2-6[8:1],2,4v1[8:1],4,7v4[8:1],7,2,2h[4:1],,7,8,1p5[8:1]/3,,12,,2h[4:1]/8-5[8:1],,8,,6h[4:1]/4-1[8:1],,4,,2b/7b,,56,3h[8:5]/7,B5/E6,,B3/B2,,B8/E1,,,
{16}4,5,3,,3h[4:1],,6,,6h[8:1],,4h[4:1],,,,5-8[8:1],,6,,5,,,,C,,,,
{4}2h[4:1],6h[4:1],4h[4:1],3h[4:1],8x,
{8},
{32}4x,5x,4x,5x,3x/6x,,,,3x/6x,,,,2x/7x,,2x/7x,,,,
{16}1x,8x,1x,8x,1x,8x,1x,7bx,,,,
{8}7h[8:3]/3,6,2,5,3,2,1,2/8v5[8:1],7,2>6[4:1]/8,1,2/6<2[4:1],,,,5h[8:1],
{16}4-1[8:1],6xh[16:3],,,4,,,,
{8}2x-6b[8:1],6x<8[8:1],8x-4b[8:1],1x,1x,8x,8x,7,7,6,5,3b-7b[8:1],,3b/5b-1b[8:1],,4b-8b[8:1]/5b,,4b<7[8:1]/Cf,,42,,
{64}4w8[8:1]/5,D4,A3,D3,A2,D2,A1,,,,,,,,,,
{16}4,,,,6,,5,,3x/4x,,3x/4x,,
{64}3x/4x,B3/B4,B5/B2,Cf/B6/B1,
{32}E6/E2/A1/A6,,,,,,3x/8x,,,,3x/8x,,,,
{64}3x/8x,Cf/B3/B8,E4/E8,B4/B7,B6/B5/D6,,,,,,,,,,,,
{32}4x/5x,,,,4x/5x,,,,
{64}4x/5x,E5/B5/B4,B3/B6/Cf,B2/B7/D2/D8,,,,,,,,,,,,,
{16}12,,34,,56,,78,,1,8,1,8,1,8,1,8,2b,,
{32}8,7,6,5,4,3,2,1,8,7,6,,
{8}3-8[8:1],3,7-4[8:1],7,1w5[8:1],,1,,,8<4[8:1],4>8p4p8b[8:3:1],8,,,,,3h[16:1],2,6h[16:1],5,34,1-5[8:1]/2-6[8:1],3h[16:1]/8h[16:1],12,,7,6,2,
{16}1x,1x,
{8}8-4[8:1]/7-3[8:1],61,87,,6-1[8:1],6,2,3-7[8:1],,35,,,
{16}6,6,
{8}4>1[8:1],5,4w8[8:1],,4,,
{16}1-5[8:1],1,,7,,6,,7,,8,2,3,4,,6,,7,6,5,,1-5-1b[6:1],,7,7,,7-3-7b[6:1],,,7,7,,,4-8-4b[6:1],,6,6,,6-2-6b[6:1],,,6,6,,
