&title=とおりゃんせ~甘美風来
&artist=遥そら
&first=0.086
&des=fishuwu with 日色
&lv_5=13
&inote_5=(152)
{32},,,,,,,4b,,,,,,,,4/5,,,,,,,,3,,4,,3,,,,2,,,,,,
{16}2x-6[8:1],,1x,,2xh[8:1],,,,,7,,,,7-3[8:1],,8x,,7h[8:1],,,,2,,,,2-5[8:1]/7-4[8:1],,1/8,,
{16}2/7,,,,3,,4,,3-8[8:1],,,,3/4,
,,,8-3[16:1],,8,,{16}6-2[16:1],,6,,4-8[16:1],,{8}4,5b<1[8:1],
{16},,,,,,2x-6[8:1],,1x,,2xh[8:1],,,,7,,,,7-3[8:1],
,8x,,7h[8:1],,,,2,,,,7-3[8:1]/2-6[8:1],,7/2,,2/7,,,,4,
5,4,,6,,3,,7,,2,,8w4[8:1],,1,,8b,,{4},,{16},
{16},1,,,,1-5[8:1],,,,,{64},,,{16}2,,
2h[4:1],,,,,,2,,2qq7[8:3],,{4},,{16},,,,6,
,6h[4:1],,,,5h[4:1],,,,4h[4:1],,,,3h[4:1],,,,
2<6[24:7],,,,,,,,,,,,5,,6,,7pp2[12:5],
,,,3<6[6:1],,3,,3,,,,,,7,,7h[4:1],,,,6h[4:1]
,,,,5h[32:11],,,{32},{16}4,,3,,{32},{16}2h[16:15],,,,3,,,,
1,,,,1x,,3x,4x,5xbpp4[4:1]/3xqq4b[4:1],{4},{16},{32}A6/A2,E6/E3,E5/E4,A4,,,
{16},,,3xh[16:4],,,,5,,4/6,,7,,6/8,,1h[16:4],,,,8,,
{16}8/1,,,,7/1-5[8:1],,2/8-4[8:1],,1b,,8b,,,,,,,,5,,
4/6,,7,,6/8,,1h[16:4],,,,8,,8/1,,,,1/7-3[8:1],,8/2-6[8:1],
,7b,,2b,,,,,,,,4,,5/3,,2,,3/1,,
{16}8h[16:4],,,,1,,1/8,,,,{8}2/8-4[8:1],7/1-5[8:1],8b,1b,
,,,5,4/6,7,6/8,{16}1hb[16:7],,,,7h[16:3],,,,1hb[16:7]/6h[16:7],,,,,,,,1hb[16:7]/5h[16:7],,,,,,,,1,5,1,5,2,6,2,6,3,7,3,7,4,8,4,8,4h[8:1],,2b,,1b-6[8:1]/3b-6[8:1],,,,1b/3b,,,,7-4[8:1]/8-4[8:1],
,6/1,,7/8,,,,{8}2-5[8:1]/1-5[8:1],
3/8,2/1,{16},,3,,{8}2,1,{16},8,1>4[8:1],,7,,{8}1/8,
{16},,8,,1,,7h[1:1],,,,{8}6,5,{16}4,,3,,2-4[16:1],,
{8}2,2b-6[16:1],{16},,1b/2b,,8b,,7b,,
,,2-5[8:1]/1-5[8:1],
,3/8,,2/1,,,,{8}7-4[8:1]/8-4[8:1],
6/1,7/8,{16},,6,,{8}7,8,{16},1,8<5[8:1],,2,,{8}8/1,
{16},,1,,8,,2h[1:1],,,,{8}3,4,{16}5,,6,,7-5[16:1],,
{8}7,7bw3b[16:1],{16},,7b,,,,,,,,{1}3bpp6[4:3]/7bpp2[4:3],
{16},,,,5/1,,,8/4,,,3/7,,7-4[8:1]/3-8[8:1],,,,7b/3b,,,,
{64}
,,,,
{16}5,4,5,3,5,{8}4h[8:1],{16}5,4,
6,4,{8}5h[8:1],{16}3,,6,4,5,4,5,4,5,,{8}5/4,6/8,{6}3/1,
{16},,7,8,6,1,7,8,{8}7h[8:1],{16}2,1,3,8,2,1,{8}2h[8:1],
{16}8,1,7,2,8,1,,1-4[24:1]/8-5[24:1],,1/8,,1/8,,,,,8,1,8,2,8,{8}1h[8:1],{16}8,1,
7,1,{8}8h[8:1],{16}2,,7,1,8,1,8,1,8,,{8}8/1,7/5,{6}2/4,
{16},,6,5,7,4,6,5,{8}6h[8:1],{16}3,4,2,5,3,4,{8}3h[8:1],
{16}5,4,6,3,5,4,,4-1[24:1]/5-8[24:1],,4/5,,4/5,{16},,,8,
7,6/1,2,3,5,6,7/4,3,2,8,7,6/1,2,3,5,
6,7/4,3,2,8,7,6/1,2,3,{64}4/A8,D8,A7,D7,A6,D6,A5,D5,A4,D4,A3,D3,A2,D2,A1,D1,A8,D8,A7,D7,A6,D6,A5,D5,A4,D4,A3,,,,,,,,,,,{16}1,
2,3/8,7,6,4,3,2/5,6,7,1,2,3/8,7,6,4,
3,2/5,6,7,1,2,3/8,7,6,{32}5/A3/D3,A2/D2,A1/D1,A8/D8,A7/D7,A6/D6,
A5/D5,A4/D4,A3/D3,A2/D2,A1/D1,A8/D8,A7/D7,A6/D6,{8}A5/D5,{16},{32}8x,7x,6x,5x,4x,3x,2x,,7x,6x,5x,4x,3x,2x,1x,,{32}5x,4x,3x,2x,
1x,8x,7x,,1x,2x,3x,4x,5x,6x,7x,,{32}2x,3x,4x,5x,6x,7x,,4x,5x,6x,7x,8x,1x,2x,3x,4x,5x,6x,7x,8x,1x,2x,3x,4x,5x,6x,7x,8x,
{8}1bh[4:1],{16},,,,5,4,6,3,4,5,6,5,4,3,
4,5,6,5,4,3bh[16:3],,,,,
,,,,{512},,,,,{8}3h[4:6],,B2,,B3,,B4,,B5,,B6,,B7/Ch[4:8],,,,1,,1,1,2,,2,2,3,,3,3,4qq4pp4[8:5],,,,7h[4:2],,,,6h[4:1],,5h[4:1],,4h[4:1],,3h[4:1],,2<5[4:6],,E6,,E5,,E4,,E3,,E2,B1,E1,,8,1,2bp2[4:2]/6bp6[4:2],,,,,,,,,,,,,,,,,,,,,,,,,,,,,,,,,,,,,,,,,,2,1,8>3[8:1],,7,8,1<6[8:1],,2,3,4,{16}5,6,{8}5-1[8:1],7,5>6[8:9]/6,,6,6,6,,6,5,4,3,2,1,8w4[8:1],,,
{128},,,,,,,,,,,,,
{8}
,,7-3[8:1]/8-4[8:1],
6/1,7/8,,2-6[8:1]/1-5[8:1],3/8,2/1,,5h[12:1],
4h[12:1],6h[12:2],{16},3h[12:1],5h[12:1],,4h[12:1],,{8}5h[12:1],,4/5<8[8:1],6,{32}5/4,3,2,1h[32:35],
,,,,7,,,,3,,,,5,,,,8,,,,2,,6,,,,,,8h[16:3],,,,,,,,1>4[8:1]/8<5[8:1],,,{8}6/3,
8/1,{128},,,,,{16},,7h[6:1],,6,,4,,,,2h[6:1],,3,,
{8}5/4,,8/7,1/2,5q8[4:1]/4qq1[4:1],{16},5/4,4/5,,,,,,,,1/5,
{4}7h[4:1]/3h[4:1],{8},1w5[1:1],3/7,1,
{16},,,,,,,,,,,,,,,,,,6h[8:1],,5h[16:2],,4h[16:4],,,,3h[16:3],
,2,{32},,A1,{16},,,,,6h[8:1],,5h[16:2],,4h[16:4],,,,3h[16:3],
,2,{32},,1x,8x,7x,{16}6x,,6h[8:1],,5h[16:2],,4h[16:4],,,,3h[16:3],
,2,{32},,1x,,,,8x,7x,6x,5x,4x,3x,2x,1x,8x,7x,6x,5x,4x,3x,2x,1x,8x,7x,6x,5x,4x,3x,2x,1x,8x,
7x,6x,5x,4xh[32:8],,,,,,,,,,,,,
{16}
,1,,2,,
{4}3-8[8:1],3/5-1[8:1],{16}1,,2,,{8}3-8[8:1],,3/5-1[8:1],
{16},,1,,2,,{4}3-7[8:1],{16}7,,6,,{8}5-8[8:1],,5/3-7[8:1],
,6-2[8:1],6,5-1[8:1],5,{16}4-8[8:1],,4,,{4}3b,
{16},,,,1,,2,,3-8[8:1],,,,3/5-1[8:1],,,,1,,2,,3-8[8:1],
,,,3/5-1[8:1],,,,1,,2,,3-8[8:1],,,,3,,4,
,5,,6,,7,,8,,1w5b[16:18],,{8}1,1b/Cf,,
