&title=SUPERNOVA
&artist=Kyotsugyon
&first=0.065
&des=Iybuki
&lv_5=14+
&des_5=Iybuki
&inote_5=
(252){4},,,,,,,,,,,,,,,,6,
5,4,3,
5,4,3,2,
{8}8h[4:5]/E2,{16}B2,B3,{4}B4,,,,,,,3,
4,5,6,
4,5,6,7,
{8}1h[1:1]/E7,{16}B6,B5,{4}B4,,,{2}3,
8h[2:1],
{4}2,3,4,5,
4,5,6,7,
{8}1h[1:1]/E8,{16}B7,B6,{4}B5,,,{1}5h[1:1],
{4}4,5,6,7,
6,7,8,1,
{8}2<5[2:3],{16}E3,B3,{4}B4fh[4:7],,,,,,,6,
5,4,3h[1:1],
5,4,2,1,
{8}8/E4,{16}B4,B5,{4}E6h[4:5],,B7,
{8},B1,,,{2}B3,
{4}1,8,7,6h[1:1],
8,7,5,4,
{8}3/E7,{16}B7,B8,{4}E1h[4:5],,,{2}E6,
B3,
{4}5,6,7,8h[1:1],
6,7,1,2,
{8}E1/E2,(220){16}B7/B3,B6/B4,{4}E6h[8:3]/E5h[8:5],{8},,,,,,E2,
E1,E8,E7,,,(210){4}4,
4h[2:1],3,3h[#0.6015034],
(190)2,2h[2:1],{2}1h[4:1],
(180){1}1b>8[2:3]/8b<1[2:3],
{4},,,,(252)7/4,
{8}6/5,4,,6/5,{4}7,
{8}6/5,4,,6/5,{4}7h[8:1],7h[8:1],
2/5,{8}4/3,2,,4/3,{4}5,
{8}4/3,2,,4/3,{4}5h[8:1],5h[8:1],
6/1,{8}7/8,6,,7/8,{4}1,
{8}7/8,6,,7/8,{4}1h[8:1],1h[8:1],
2/7,{8}4/5,7,,4/5,{4}2w6[8:1],
2b,{16},,,,,,,,4,3,2,1,
{4}8b/7bv4[8:1],{8}7/8,2q6[8:1],,2/1,{4}7v4v1[4:1],
{8}7/8,2h[8:3],,,8-4[8:1],4-7-3[16:3],,,{4}2bv5[8:1],
{8}2/1,7p3[8:1],,7/8,{4}2-5-1[4:1],
{8}2/1,7h[8:3],,,8-4[8:1],1,{4}2/8,
3b>8[8:1],{8}4/3,5v8[8:1],,5/4,{4}3>8>3[16:5],
{8}4/3,6h[8:3],,,5v8[8:1],5p1[8:1],,,{4}7bv4[8:1],
{8}7/8,2q6[8:1],,1/2,{4}7-4-8[4:1],
{8}7/8,2h[8:3],,,{4}B2/E2,E8/B7,
6/5>8>5[16:9],{8}5/6,B6h[8:3],,,{4}B7/Cf,
3/4<8p3[16:9],{8}4/3,B2h[8:3],,,{4}B1/C,
6/7>3>7[2:1],{8}7/6,B5h[8:3],,,{4}B4/Cf,
2/3<6v8[2:1],{8}3/2,B2h[2:1],B3,B3,B3,B3,
{4}7-3[8:1],{8}7b,8-4[8:1],,8b,{4}1-5[8:1],
{8}1b,2-6[8:1],,2b,3bx,2bx,1bx>1-3-5-7-1>2-4<6-8>1[8:25],8bx,
{1}7bxh[4:15],
,,{4},{16}E8,
E7,E6,E5,E4,E3,D2/E2,E1/D1,D8/E8,D7/E7,D6/E6,E5/D5,
{8}E4/D4/7x-4[8:1],1x-3[8:1],7<5[8:1],1-5[8:1],7,1,{4}8>5[8:3],
{8}5,5<2[8:3],,2,{2}2>3-5[8:1]*-6[8:1],
{8}8x-6[8:1],2x-5[8:1],8-5[8:1],2>4[8:1],8,2,{4}1<4[8:3],
{8}4,4>7[8:3],,7,{2}7<6-4[8:1]*-3[8:1],
{8}1x-3[8:1],7x-4[8:1],1-5[8:1],7<5[8:1],1,7,{4}8>1>2>3<4<5[8:3],
{8}5,5<6<7>8>1>2[8:3],,2,{2}2w6[8:1],
{4}4/8,{8}7,6/5,,2,{4}3/4,
{8}8,5/6,,1,{4}3/4,{8}5/6,8b/2b,
,,{4}4/3-7[8:1],3/6-8[8:1],1-3[12:1]/6-4[8:1],
6/1,{8}8,8-6[8:1]*-4-2[4:1],,8,,,5,
5,{4}5-7[8:1]/1-3[8:1],5-8[8:1]/1-4[8:1],5/1,
1<6[8:1],{8}1b,5>2[8:1],,5b,{4}1,
{8}7,7,{4}8/7<4[8:1],7/1-5[8:1],8-4[8:1]/1-3[8:1],
1/8<5[8:1],{8}8b,4>1[8:1],,4b,{4}8,
3b/6b<1[8:1],{8}6,3b>8[8:1],,3,{4}6bq2[8:1],
{8}6,3bp7[8:1],,3,{4}5bq2[8:1],{8}5,4bp7[8:1],
,4,{4}5bv4[8:1],{8}5,3b,,3xh[#2.261909],
(168)B2f,B8f,B4f,B6f,E1f,E7f,E3f,E5f,
{1}Cfh[1:1],
{8}2>5[16:3],1,8/A2,7,6<1[16:3],5,4/A6,3,
2<7[16:3],3,4/A2,5,6>3[16:3],7,8/A6,1,
2-7[16:3],3,4/A2,5,6-3[16:3],7,8/A6,1,
2-5[16:3],1,8/A2,7,6-1[16:3],5,4/A6,3,
2-8<7[16:3],3,4/A2,5,6-4>3[16:3],7,8/A6,1,
2-4<5[16:3],1,8/A2,7,6-8>1[16:3],5,4/A6,3,
2p5[16:3],1,8/A2,7,6p1[16:3],5,4/A6,3,
{2}B1h[2:1]/E2h[8:5],{8}B6,B3,{16}5,3,6,2,
{8}7b-4[8:1],8,7/1-6[8:1],2,1/3-8[8:1],4,3/5-2[8:1],6,
5/7-4[8:1],8,7/1-6[8:1],2,{2}1/3-6[8:1]*-8[8:1],
{8}2v5[8:1],1,2/8v3[8:1],7,8/6v1[8:1],5,6/4v7[8:1],3,
4/2v5[8:1],1,2/8v3[8:1],7,{2}8/6v1[8:1]*p2[8:1],
{8}7<6-4[8:1],8,7/1<8-6[8:1],2,1/3>2-8[8:1],4,3/5>4-2[8:1],6,
5/7<6-4[8:1],8,7/1<8-6[8:1],2,{2}1/3-8[8:1]*<4-7[8:1],
{8}2pp4[8:1],1,8pp1[8:1],7,6pp8[8:1],5,4<1[8:3],3,
{2}E2h[1:1]/B2fh[1:1],{4}B7h[2:1],B6fh[4:1],
{8},,,3>6[8:9],,,{4}5,
{8}3,3h[8:1],,,{4}1,8,
{8}5/6q3[8:7],,,7,,,{4}8,
{24},1,,,{6}1s5[6:1],{24},,,,,,,A7,B7,C,B3,A3h[24:5],,,,,(224){4}E2h[2:1],
E1f,E8h[2:1],E7f,
E6h[2:1],E5f,E4h[4:1],E3f,
{8}1/2xh[8:3],8,7,6,{16}5,6,7,8,1,2,3,4,
{2}5bh[400:199]/1bh[400:199],(112){4},7x>8-2v7<6-1[4:5],
{8},B5,B4,B3,B2,B1,{16}B8,,,E5h[16:5],
{48},,,,,,,,,,,,,B4,B3,E3,,,,,,,,,,,,,,,{8}3,{4}3bx-7-1>5b[4:5],
{16},,B6,B5,{8}B4,B3/A3,B2/A2,B1/A1,{4}A8h[2:1]/B8h[2:1],
{48},,,,,,,,,,,,,E8,E7,E6,,,,,,,,,{4}7xpp4[2:3],7x,
{8},E6,E7,E8,E1,E2,{16}A2h[2:1],,,B2h[16:5],
{48},,,,,,,,,,,,,E3,E4,E5,,,,,,,,,,,,,,,{8}2x,{4}E8h[2:1]/2x>5qq1[2:1],
{48}2x,,,,,,,,,,,,,B7,B6,E6,,,,,,,,,{4}8x>8[2:1],B4h[2:1],
{48},,,,,,,,,,,,,B3,B2,B1,,,,,,,,,{4}1bx>2-5p7>2b[2:3],1,
{8},E1,E8,E7,E6,E5,{16}E4h[2:1],,,A3h[16:5],
{48},,,,,,,,,,,,,E3,E2,E1,,,,,,,,,,,,,,,{8}6x,{4}6x<7-1>2-6>4[4:5],
{16},,B4,B5,{8}B6,A7/B7,A8/B8,A1/B1,{4}A2h[2:1]/B2h[2:1],
{48},,,,,,,,,,,,,E3,E4,E5,{16},,{64},,{96},{256}5x-7[16:1],4bx-2b[256:15],{16},,,{64},,,{128},{4}4x/5x,
{8},D2/E2`D8`E8,E3/D3`D7`E7,E4/D4`E6`D6,B5/A5`B4`A4,B6/A6`B3`A3,{16}A7/B7`A2`B2,,,A8h[16:5]/B8h[16:5]/A1h[16:5]/B1h[16:5],
{48},,,,,,,,,,,,,E8/E2,E7/E3,E6/E4,,,,,,,,,,,,,,,{8}5x,{4}5xV71-6-4[4:5],
{16}3x,,,3x,{4}3xh[16:1],5bx-2-8b[2:1],5x,
,6?-2[16:1],A6f,(224){24}1/B4h[4:1]/E4h[4:1]/B3h[4:1],8,7,6,,,,,,8/B2h[4:1]/B3h[24:5]/E3h[24:5],
7,6,{4}5,{24}1/Cfh[4:1],8,7,6,,,8b,1,2,3,4,5,
6,7,8,1,2,3,4,5,6,7,{12}8,{48},,,,,,{16}6,5,,7,8,6,
1,5,,2,1,3,8,4,7,5,6,4,5,3,4,3,
4,1,7,3,5,2,8,4,6,1,7,4h[48:11],{24}5b,6,7,8h[4:1],,,,,,B5,
B6,B7,{4}B8h[4:1],{24}6b,7,8,1h[4:1],,,,,,B2,B3,B4,
{4}B5h[4:1],{8}6xh[16:1],7xh[16:1],8xh[16:1],{16}2,1,{8}2-5[8:1],8,
2,7-4[8:1],1,7,3>8[8:1],5,3,6<1[8:1],
4,6,3-1[8:1],5-7v4[4:1],3,5,{24}8,1,2,3-8[8:1]*-7[8:1],,,,,,{8}3x,
,,7h[4:1],{16}6,5,4,3,2,1,
{8}8-2[16:1],7-3[8:1],8bx-4[8:1],7bx-5[16:1],8x,7x,3,{16}3,2,
1,8,{8}7/4<7[8:1],2,4,3>8[8:1],5,3,{16}6,5,
{8}4,{16}1,2,{8}3/4b,{16}8,7,{8}5b/6<2[4:1],4,{4}6x,
{16},,3,4,3,2,{8}3,{16}6,5,6q3[8:3],7,{8}6,E2h[8:3]/D2h[8:3],
{16},,,,,E3,E4,A4,,,6,7,5/8h[16:3],4,3,2,
1,8,7/4,3,2,1,8,7,6/4,3,2,1,8,7,6/3,2,
1,8,7,6,5/4,3,2,1,8/4,3,2,1,{24}8/4b,E4,E3,E2fh[4:1],,,,,,{8}E6/B6,
{16},,,,7,6,5,4,{24}E1,E8,E7,E6f,{48},,,,,,,,,,,,,,,,{16}8,
1,2,3,4,5,{24}6/E4f,{48}B3,7,{24}B2,{4}8h[8:3]/E2fh[8:3],
{8},B2/B1,{16},,6,5,6<6[2:1],3,4,3,{4}Cf,
{16},,,,,,,,5,4,3,2,1,2,1,2,
1,3,8,3,8,4,7,4,7,5,6,3,{8}8,{16}3x,2,
1,8,{8}7,5xh[16:1]/B7,5xh[16:1]/B8,5xh[16:1]/B1,5xh[16:1]/B2,{4}2x>5[8:1],
{8}2,8<6[8:1],2,8,1-5[8:1],8,1,7<4[8:1],
2,7,{16}B1,B8,B7,B6,A1,A8,A7,A6,{4}B2fh[8:3]/B3h[8:3],
{8},B6/B7,,,8,{16}8,7,{8}6,{16}3,4,
{8}5x>3[8:1],6x-2[8:1],5-1[8:1],6<8[8:1],5,6,2,{24}2,3,4,
{8}5,{24}1-3[12:1],8,7,{8}6,1,7-5[12:1],8,7,{16}1,2,
{8}3/4b,{16}8,7,{8}6/5b,{16}3,2,{8}1b>6[4:1],8/2,{4}A1f,
{16},,7,8,{8}7,5,{16}2,1,{8}2,4,{16}7,6,
{4}7h[4:1],{16}B8,B1,{8}B2h[4:1],{16},,B7,B6,{4}B5h[4:1],
{24}E1,E2,E3,E4h[4:1],,,,,,E1,E8,E7,{4}E6fh[4:1],(298.66)1b-5[8:1],
5b-2[8:1],2b-6[8:1],6b-8[8:1],8b-3[8:1],
3b-7[8:1],7b-5[8:1],5b-1b[8:1],{8}1b-3b[8:1],A1,
3b-7b[8:1],A3,7b-4b[8:1],A7,5bw1[4:3],A4,{4}Cf,
,,,{256}7b-1<8-2<1-3>2-4>3-5>4-6>5-7<6-8<7-1[4:11],3b-5>4-6>5-7<6-8<7-1<8-2<1-3>2-4>3-5b[256:703],{1},,,{16},,,{64},,,{128},{4}Cfh[2:1]/B6h[4:1]/B5h[16:5]/B4h[8:3]/B3h[16:7],
,,(597.32)7,
7,5,5,3,
3,1,{8}1h[8:5],,,8,
,8-4[0.2009##0.1004],,,,2,,2-6[0.2009##0.0753],
,,{4}7,,8,
8,6,6,4,
4,2,{8}2h[8:5],,,1,
,1-5[0.2009##0.1004],,,,3,,3-7[0.2009##0.0753],
,,{4}8,,1,
1,7,7,5,
5,3,{8}3h[8:5],,,4,
,4-8[0.2009##0.1004],,,,2,,2-6[0.2009##0.0753],
,,{4}1,,1bh,
{8}1,8,{4}7,3bh,{8}3,4,
{4}5,8bh,{8}8,7,{4}6,
2bh,{8}2,3,{4}4,7bh,
{8}7,6,{4}5,1bh,1h[8:5],
{8},,,7-5[0.2009##0.0753],,,,7/2-5[0.2009##0.1004],
,,,2/7-1[0.2009##0.0753],,,,7/3>8[0.2009##0.1004],
,,,3,,4<7[0.2009##0.1004],,,,4,
,3,,,{4}8,
8h[16:15],1-3[0.2009##0.0753],,1-5[0.2009##0.1004],
,1b,,6/4,
7,3,6/4,8,
2,6/5,,1,
1h[16:15],8<6[0.2009##0.0753],,8-4[0.2009##0.1004],
,8b,,3/5,
2,7,4/5,1,
6,3h[4:1]/4h[4:1],{16},,,,(199.11)6,5,{8}6,
{16}3,4,{8}3,{16}7,6,{8}7,{16}2,3,{8}2,{16}8,7,{8}8,
{16}1,2,{8}1,{16}6,6,{8}5,{16}1,1,{8}2,{16}7,7,{8}6,
{16}3-7b[12:1],3h[16:5],{8}4,{4}B3f,{8}6b<8[16:1],{16}6,5,{8}6,3b>1[16:1],
{16}3,4,{8}3,7b-4[12:1],{16}7,8,{8}7,2b-5[12:1],{16}2,1,{8}2,
6b<8[16:1],{16}6,4,{8}6,2b<8[12:1],{16}2,4,{8}2,7b-3[12:1],{16}7,6,
{4}7h[8:1],{8}5/1,3h[24:1],5/1,7h[24:1],4/8,2h[24:1],
4/8,6h[24:1],3/7,1h[24:1],3/7,5h[24:1],8/4,2h[24:1],
8/4,6h[24:1],5/1,3h[24:1],5/1-6[12:1]*-4[12:1],7h[24:1],{4}1b,
{12},,(298.66){6}5b/E4f,{12},5b/E3f,,,5b/E2f,,,5b/E1f,
,,{6}5b/E8f,{12},E7f/5bw1[0.4018##0.1339],{24},,,,,,,,,,5b,C/B6/B4/B8/B2,
E
