&title=Straight into the lights
&artist=Cosmograph
&first=0
&des=超時空V型ヘビ
&lv_4=14
&inote_4=(90)
{2},{8},{64},
{16}
7h[8:1],,4,5-2[16:1],,8,1-6[16:1],,
,,,,4pp2[8:2],,,,1,8,7,,8,7,6,5h[8:3]/2h[8:3],
,,,,,,,,
6h[8:1],,1,8-3[16:1],,5,4-7[16:1],,
,,,,1qq3[8:2],,,,6,5,4,,7,,,8-5[16:1]/4-1[16:1],,,,8b/4b,,,,
8-6[16:1],,1,,2-8[16:1],,3,,4-2[16:1],,5,,6-4[16:1],,7,,
8-4[16:1],,,,2-6[16:1],,,,4h[8:3],,,,,,8b,,
6,6,4,4,5,5,3,3,8,8,1,1,6,6,3,3,
{32}
5,4,5,4,5,4,5,4,
6,3,6,3,6,3,6,3,
7,2,7,2,7,2,7,2,
8,1,2,3,
4,5,6,7,
{16}
4>4[8:4]/8h[8:7],,,,
,,,,
,,,,,,4b,,
8^3[8:1],7,6,5,
8,7,6,5,
7-4[16:1]/1,,5/3-8[16:1],,
,,,,
1^6[8:1]/7,,35,,
4,3,2,,
5/1V35[8:1],,7,8,
51,6,7,,
4-8[8:1],,8,,
4,5,6h[8:4],,
8b,,4b,,2b,,5b,,
7h[8:1]/4qq5[4:1],,,,
6,7,8,,
7-3[16:1],,4-2[16:1],,
7,,4b,,
1^6[8:1],,,,1,2,3,,
2-5[16:1]/8,,4/6-1[16:1],,
,,,,
8^3[8:1]/2,,64,,5,6,7,,
4/8V64[8:1],,2,1,48,3,2,,
5-1[8:1],,1,,5,4,3h[8:2],,
8,,4,,7,7,3,3,
2h[8:1]/5pp4[4:1],,,,3,2,1,,
8,,7,7,3,3,5,5,
{32}
4,6,4,6,4,6,4,6,3,7,3,7,3,7,3,7,
2,8,2,8,2,8,2,8,
{32}
1,2,3,4,5,6,7,8,
{16}
1-5[16:1],1,6,6,7-4[16:1],7,3,3,
5-1[16:1],,2-4[16:1],,
,,,,
5,6h[8:1],,1-6[16:1],
1,,4,5qq7[16:3],
,,8,1
,2,3,,
,
8-4[16:1],8,3,3,2-5[16:1],2,6,6,
4-8[16:1],,7-5[16:1],,
,,,,
8V24[8:1],,,,5,,,,
6-2[8:1],,1,1
,,3,3,,
5b-1[8:3],,,2b,,,8b,,
{32}
,,,,5,,1,,
{16}
5h[16:2]/1h[16:2],,,,
7>3[8:2]/3,4,5,6,1,2,3,4,
5-1[16:1],,28,,5,,,,
7h[8:6]/5h[8:7],,,,,,,,,,,,,,,,
6h[8:6]/4h[8:7],,,,,,,,,,,,,,,,
{32}
4,,3h[8:1],,,,4,,5h[8:1],,,,8,1,2,3,
5,,2,,,,6,,78,,78,,61,,,,
5,,6h[8:1],,,,5,,4h[8:1],,,,1,8,7,6,
4,,7,,,,3,,21,,21,,38,,,,
45,,3,,45,,6,,35,,1,,64,,8,,
12,,34,,56,,78,,3,4,2,,6,5,7,,
1,8,2,7,3,6,4,5,
4,3,2,1,8,7,6,5,
{16}
4bw8[16:1],,,,,,,,
4,53,,3,42,,2,3/1qq2[16:3],,,4,4,5,5,6,6,
3,2/4,,7,
68,,1,8/2h[8:3],
,,1,7,
5,3,,,
8,1/7,,7,86,,6,7/5qq6[16:3],,,8,8,1,1,2,2,
7,6/8,,3,
24,,5,4/6h[8:3],
,,5,3,
1,7,,,
53,5,52,5,51,5,52,5,
46,4,47,4,48,4,47,4,
64,7,35,2,2^5[8:1]/6^1[8:1],,
,,26
,,
,,
,,
{32}84,73,62,,{16}
7-4[16:1],3-5[16:1],8-4[16:1],2-5[16:1],,,,,
6-4[16:1],2-5[16:1],7-4[16:1],1-5[16:1],,,,,
{32}
6,,,,6,,,,
7,4,7,4,8,3,8,3,
8,7,6,5,4,3,2,1,
{16}
8b/4b,,,,
{32}
2,1,3,1,2-4[16:1],,8,,1,,7,,2,,7,,
6,5,7,5,6-8[16:1],,4,,5,,3,,6,,3,,
1,2,1,2,8,2,8,2,7,1,7,1,6,1,6,1,
5,4,3,2,1,8,7,6,4,3,2,1,8,7,6,5,
7-5[16:1],,7,,2,8,3,7,4-2[16:1],,4,,6,5,7,4,8,,8,,8,,8,,
7b/3b,6b/2b,5b/1b,4b/8b,,,,,
{16}
4,53,,7,
86,,1,8/2V84[16:3],
,6,6,6,
5,5,5,,
{32}
3,4,2,4,3-1[16:1],,5,,4,,6,,3,,6,,
7,8,6,8,7-5[16:1],,1,,8,,2,,7,,2,,
4,3,4,3,5,3,5,3,6,4,6,4,7,4,7,4,
8,1,2,3,4,5,6,7,1,2,3,4,5,6,7,8,
1-5[16:1],,,,,,,,
,,,,,,,,
2,3,4,,2,3,4,,2,3,4,,2,3,4,,
1b/5b,2b/6b,3b/7b,4bV63[8:4]/8bV27[8:4],,,,
,,,,
,,,,
,,,,
,,,,
,,,,
,,,,
,,,,
,,,,
,
26,,,
,,,,
,5,,,
,5,,,
,5,,,
,6,,,
,
{16}
7-5[16:1],,1,,7,8,1h[8:2],,
5,,3,,7,5,3,1,
7h[8:1]/2pp5[4:1],,,,
8,7,6,,
6-8[16:1],,1-5[16:1],,
6,,1b,,
4V28[8:1],,,,4,5,6,,
7-4[16:1]/8,,8/1-5[16:1],,
,,,,
6-8[16:1]/5-1[16:1],,8-4[16:1]/1,,,,,,5V74[16:3],,
,,3,3,2,,
2-4[16:1],,8,,2,1,8h[8:2],,
4,,6,,2,4,6,8,
2h[8:1]/6-8[16:1],,,,
1,2,3,,
84,,74,,64,,54,,
{32}
4,5,4,5,4,5,4,5,
4,5,4,5,4,5,4,5,
2,4,2,4,2,4,2,4,
3,5,3,5,3,6,2,7,
{32}
1,8,1,8,1,8,1,8,
{48}
1b,8b,1b,8b,1b,8b,1b,8b,,,,,
{16}
35,26,
,,,,,,,,
E
