&title=Désive
&artist=MisomyL
&first=0.234
&des=dissipae
&lv_5=14+
&inote_5=(180){4},,,,,,,,6q7[8:7],
5,4,3h[48:35],
,{16},,,{24},{48}6<1[4:3],,,,,,,,,,,{24}2h[48:35],{4},,,{16},,,{48},{24}1h[24:23],
{4},,,{16},,{24},{3}8h[2:1],
{6},2<5[4:9],{24},,,,,,,{8}7h[4:3],,,,,,,,6h[1:1],
{1},{4},,,{16},3h[#1.315217],
,,,,,,,,,,,,,,(230),
6h[8:1],,,,1,,7h[8:1],
,,,2,,8h[8:1],,,,3,,1h[8:1],,4,,4,
,2h[2:1],,,,,,,,3h[8:1],,,,8,,2h[8:1],
,,,7,,1h[8:1],,,,6,,8h[8:1],,5,,5,
,7h[2:1],,,,,,,,6,,8,,7,,1,
,8,,8,,2,,1,,1,,3,,2,,2,
,3/1h[2:1],,,,,,,,2,,8,,1,,7,
,6,,6,,4,,5,,4qq4[16:7]/6pp6[16:7],,,,,,,,,,,,,,,,3-1[8:1],
,,,8,,8-4[16:3],
,,,7,,6,,,,2,,2,,2/5v6[16:3],,,,1>4[8:1],
,,,8,,,,7-5[8:1],,,,4,,4-8[16:3],
,,,3,,2,,,,1,,1,,1/6>4[8:1],,,,2-6[8:1],
,,,7,,,,8-4[8:1],,,,2,,2v1[16:3],
,,,7,,7,,,,3,,3,,5q1[16:3],,,,3<6[8:1],
,,,3,,,,7,,,,6/1-5[8:1],,1,
,,,7-3[8:1],,7,,,,2,,2,,8,,8,
,1,,1,,7/1,,,,4,5,3h[8:1],,,,5,
4,6h[8:1],,,,3,4,2h[8:1],,,,6,5,7h[8:1],,,,2,
4,3h[16:3],,,,7,6,5,3,2,1,6,5,4,
,2x,4x,2x,4x,1x-5[0.2609##0.1304],6x,2x,7x,1b-3-7-5b[4:9],{1},,,{4},{16},,{32},3>5[0.2609##4.6957],
,,,,,,,,,,{8},,,,,,,,,{2}7h[4:1],
{32},,,,,,,,,6,,,,6,{4},,,{16},{32},5,
,,,,,,,4,,,,,,,,3,,,,,,,,2,
,,,,,,,1,,,,1h[8:3],{1},{16},{32},3<2[4:13],
{4},,{16},,,{32},3,
,,,3,{4},,,{16},{32},4,
,,,,,,,5,,,,,,,,6,,,,,,,,7,
,,,,,,,8,,,,8h[8:5],{1},{16},{32},5h[2:1]/6-1[2:1],
{4},,{16},,,{32},3,
,,,3,{1},{16},{32},4h[2:1]/3>8[2:1],
{4},,{16},,,{32},6,
,,,6,,,,,,,,,,,,5,,,,,,,,4,
,,,,,,,3,,,,,,,,2z6[4:11],{1},{4},,,{16},{32},1x,
,8x,,7xs3[1:1]*s3[1:1],{1},{4},,,{16},,,{32},3xh[4:1]/5xh[4:1],
,,,,,,,,,,,,,,,5/3,
,,,,,,,7x/4x<3[4:3],,,,4x/7xh[8:5],{4},,,{16},{32},8x,
,,,,,,,1xh[4:1]/7xh[4:1],,,,,,,,,,,,,,,,7x/1x,
,,,,,,,3x/8x>6[4:3],,,,8x/3xh[8:3],{1},{16},{32},5xh[4:1],
,,,,,,,3<1[4:5],,,,,,,,8,
,,,,,,,7x,,,,7xh[8:3],{4},,,{16},{32},2x,
,,,,,,,3xh[4:1],,,,,,,,5x<3[4:5],,,,,,,,8x,
,,,,,,,2x,,,,2xh[8:3],{1},{16},{32},6/4xh[4:1],
,,,,,,,6,,,,7/4xh[4:1],,,,,,,,7,
,,,4x/8,,,,,,,,3/6xh[4:1],,,,,,,,2,,,,1/6xh[4:1],,,,,,,,1,
,,,6x/8,,,,,,,,7/3xh[4:1],,,,,,,,6,,,,3/5xh[4:1],,,,,,,,2,
,,,4x/1,,,,,,,,8/4xh[4:1],,,,,,,,8,,,,1/5xh[4:1],,,,,,,,1,
,,,2/6x,,,,,,,,3,,,,4,,,,3/5,,,,,,,,7,
,,,8,,,,1/7,,,,,,,,7/3-5[8:1],,,,,,,,3/7,,,,,,,,2/6-8[8:1],
,,,,,,,6/2,,,,,,,,4x,,3,,2,,1,,7x,,6,,5,,4,
,2,,8,,2,,8,,3,,7,,3,,7,,3x,,4,,5,,8x,,7,,6,,2x,{96},3,,,,4,
,,,{32}5,{96},1x,,,,8,,,,{32}7,{96},6,,,,1x,,,,{32}2,{96},3,,,,4,,,,{32}7x,{96},6,,,,5,,,,{32}4b/8bq1>7[4:7],,,,,,,,,,,,B7,,,,,,,,,,,,E5,
,,,,,,,,,,,,,,,E3,{4},,{16},,,{32},8h[8:3],
,,,,,,,,,,,B2,,,,,,,,,,,,8h[2:1]/B6,
,,,,,,,,,,,,,,,B4,,,,,,,,,,,,,,,,1,
,,,5,,,,1h[8:3],,,,,,,,,,,,E7,,,,,,,,,,,,1h[2:1]/B3,
,,,,,,,,,,,,,,,E5,,,,,,,,1h[4:1],
,,,,,,,B7,,,,,,,,Ch[2:3],{1},{4},,,{16},,,{8}1,
2-5[8:1],,2/8,
{4}7-3[8:1],{8}7/8,1-5[8:1],1,6pp2[4:1],{4}6,
3,{16}3,4,{8}5,8,7-4[8:1],,7/1,
{4}2-5[8:1],{8}2/1,8-4[8:1],8,3qq7[4:1],{4}3,
6,{16}6,5,{8}4,{16}2b,1b,2b,1b,{8}2b,{16}7b,8b,
7b,8b,{8}7b,{16}2b,4b,3b,4b,{4}2b,{8}8bh[8:1],{16}5b,6b,
5b,6b,{8}5b,,2bh[8:1],{16}5b,3b,5b,3b,{8}5b,{16}1b,7b,
1b,7b,{8}1b,{16}6b,2b,6b,2b,{8}6b,{16}4b,8b,4b,8b,{8}4b,
{16}6b,5b,7b,4b,{4}1bh[16:123],{1},,,,,,,{4},{16},,,2xqq7[1:1],
,,,,,,,,,,,6x,,,,7x>4[1:1],
,,,,,,,3x,,,,,,,,4x<3[1:2],
,,,,,,,,,,,,,,,1h,
,,,,,,,3x,,,,3x,,,,3xpp6[1:2],
,,,,,,,,,,,1x,,,,1x,
,,,,,,,,,,,6x,,,,6x<3[1:1],
,,,,,,,,,,,,,,,3x<5[2:1],
,,,,,,,5x<7[2:1],,,,,,,,7x>3[1:1],
,,,,,,,,,,,2x,,,,3xq6[1:1],
,,,,,,,,,,,5x,,,,6xp3[1:1],
,,,,,,,,,,,2x,,,,3x>5[1:1],
,,,,,,,5x,,,,,,,,5x>1[16:13],
{1},{4},{16},,,5xh[4:1],
,,,3xh[4:1],{32},,,,,,7xh[2:1],B1,
B2,B3,B4,E5,,,,,,,,,,,{16}1-5[4:1],,,,,,,,6-2[4:1],
,,,,,,,4h[8:5],{32},,,,,,,,,,,,,,,,,,8b,
3/7,2/6,1/5h[32:7],,,,,,,{16}8,1,2,3,4,5,1,8,7,6,
5,4,,1,,1,,7,,7,,5,,5,,7b/4b,
,6,5,6,,2b/5b,,3,4,3,,6b,,8/2,,1,
7,1,7,1,,6,,2,3,4,5,8,7,6,5,3-6[8:1],
,,,3,,7-3[8:1],,8,,7,,8-5b[8:1],,,,6x-3[8:1],
,,,6,,2-6[8:1],,1,,2,,1>4b[8:1],{48},,,,,,,,,8,,7,
,6,,{16}5h[8:1],,,,3-8b[8:1],,7v4b[8:1],,3,,7,,,,3,
2,1,8,5,6,7,8,2,3,4,5,1,8,7,6,3-8[8:1],
,,,5-1[8:1],,,,2-6[8:1],,,,7-4[8:1],,,,1>5[4:1],
,,,5<1[4:1],,,,1>5[4:1],,,,5x,6,7,8,1,
2,3,4,5/1,8,7,6,5,4,3,2,1/5,,5,,6/2,
,6/2,,3/7,,7/3,,8/4,,8/4,,1-6[8:1],,,,3/1x-4[8:1],
,,,1/7x-3[8:1],,,,7/2x-5[8:1],,2,,2/8,,,,7x,
4,7,4,6,3,6,3,5,2,5,2,6,7,8,,4x,
7,4,7,4,,6x,1,6,1,6,3x,7x,3x,7x,{24}4x,5,6,
7,8,1,2,3,4,5,6,7,8,1,2,3,{48}4,8x,{96},{32}7,6,5,4,3,2,1,8,7,6,5,{16}4bw8b[4:1],
,,,,,,,,,5h[4:1],,,,2h[8:3],,,,,,7h[4:1],
,,,1h[8:1],,3h[8:1],,5h[8:1],,7h[8:1],,1b,
5b,3bh[16:1],,,,8b,4b,6bh[16:1],,,,3b,5b,1bh[16:1],,,,6b,
4b,8bz4[8:3],,,,4h[16:1],,,,3h[16:1],,,,2bh[16:1],
1bh[16:1],2bh[16:1],1bh[16:1],4b>8[4:1],,,,8<4[4:1],,,,4>8[4:1],,,,8,
,,,6-2[8:1],,,,6/1-5[8:1],,,,1/7w3[8:1],,,,7,
{32},,,,,,,,,,7b/8bh[8:1],6x,5x,4x,{16}3x,{32},,,,,,2b/1bh[8:3],3x,4x,5x,{16}6x-2b[4:1],,,,,,,,,,7x-4[8:1],
,,,2x-5[8:1],,,,8x-3[8:1],
,,,1x-6[8:1],,,,4x-7[8:1],,,,5x-2[8:1],,,,1-5[8:1],
,,,1/8-4[8:1],,,,8/7-3[8:1],,,,7,,,,1b-5[8:1],
,,,1/7,,7b-3[8:1],,,,7/2,,4bw8[8:1],,,,,,,,6x/2x,
5,4,3,2,1,8,7,6/2,,,,3b/8b,
,2,1,2,,4b/7b,,6,5,6,,2b/5b,,3,4,3,
,7,6,5,4,8,7,6,5,4/8,3/7,2/6,{24}1/5,8x,7,6,5,4,
3,2,1bx,5x,{48},{16}1bx,5x,8b,4,8b,4,8b,4,8b,4,8b,4,8b,
4,8b,4,8b,4,8b,4,8b,4,8b,4,8b,4,8b,4,1b-5[2:1],
,,,,,,,,,,,,,,,4-7[8:1]*-1[8:1],
,,,,,,,4w8[8:1],,,,,,,,6x,
5,7,{8}5,{16},3x,4,2,4,,,7-3[8:1],,7,,2-6[8:1],
,2,,8,,8,,1x,5,1,5,1,5,1,,3x,
4,2,4,3,,6x,5,7,5,6,,2-6[8:1],,2,,7-3[8:1],
,7,,1,,1,,8x,4,8,4,8,4,8,4,8s4[16:19],
{1},{4},,,{16},,,7x,
4,7,4,7,,2x,6,2,6,2,,5x,4,5,3x,4,
3,7x,5,7,3x,5,3,6x,4,6,2x,8-4[8:1],2,6,4,8b-2-6-4b[16:19],
{1},{4},,,{16},A8,
B8,C,
B4,A4,,A1,B1,C,B5,A5,,A7,B7,C,B3,A3,,A2,
A3,A4,A5,A6,,E8,E7,E6,E5,E4,,A2,A3,A4,A5,A6,
,D8,D7,D6,D5,D4,{8}C,
E
