&title=give it up to you
&artist=近藤玲奈; 中島唯
&first=0
&des=Yuzukeai
&lv_5=13
&inote_5=(174)
{1},
{8}4h[8:1],,,,,,4h[8:1],5-3[4:1],,,,,2h[2:1],,,,5h[8:1],,,,,,5h[8:1],4-6[4:1],,,,7h[8:3],,,6,,5,,4,4>1[4:1],,1<6[8:2],,6pp4[2:1],,,,,,,5h[4:1],,1,26,,2,37,,3,48,,4,5b/7b,,
{16}6,5,6,,1b-4[8:1],,,,
4,,,,7-4[8:1],,,,4,,,,2,,2h[4:1],,,,4,,4-8[8:1],,,,,,3,,3,,,,
7,,7,,1-5[8:1],,,,,,,,6,,6<1[4:1],,,,1-5[4:1],,,,3,,,,2,,2-5[8:1],,,,
5,,,,5-2[8:1]/8-5[8:1],,,,58,,,,2,,2h[4:1],,,,5,,5-1[8:1],,,,,,3,,3,,,,2,,2,,4pp4[8:3],,,,,,,,2,,3,,,,4qq4[8:3],,,,5,,,,6,,7,,,,8/4-2[8:1],,,,6,,,,,,7,,6,,,,8/4-1[8:1],,,,6,,,,,,7,,6,,,,8/4-8[8:1],,,,6,,5,,,,2<7[4:1],,,,7q4[4:1],,,,,,4,,,,6,,,,7qq5[4:1]/5,,,,5<8[4:1],,,,1,,,,2pp4[4:1],,,,4>1[4:1],,,,8,,,,6h[4:1],,,,5,,,,4pp4[2:1],,,,3qq4[4:8],,,,,,,,,,,,5,,,,5,,,,6pp5[2:1],,6,,,,,,,,,,
,,,,,,,,2-6[2:1]/7,,,,,,,,8,,,,,,,,7-3[2:1]/2,,,,,,,,1,,,,,,,,2v5[2:1]/6,,,,,,,,,,,,
7,,,,7h[4:1],,,,3,,3h[8:3],,,,,,5h[8:3],,,,,,3,,2,,1h[1:1],,,,7,,6,,5h[8:4],,,,,,,,,,,,
2,,35,,7,,64,,2,,35,,5pp4[8:5]/3qq4[8:5],,,,,,,,,,,,,,,,,,
8-2[8:1],,,,8b/4-8[8:1],,,,4,,,,4/8V25[8:3],,48,,,,6,,7,,8,,,,2V41[8:3],,,,4pp5[8:3],,,,,,,,,,,,1,,2,,3>5[8:3],,,,73,,,,,,8b,,,,8bqq8[2:1],,,,,,2,,3,,4,,5-2[8:1],,,,1-6[8:1],,1,,,,4-1[8:1],,,,8-5[8:1],,,,3-7[8:1],,,,3qq4[8:3]/7qq8[8:3],,,,,,,,,,,,,,3,,25,,,,5h[4:1],,1,2,3,,5,6,7,,4,3,2,,
5/1-7[8:1],,,,1b/5-1[8:1],,,,53,,,,5V38[8:3]/1V74[8:3],,15,,,,,,,,,,,,2V47[4:1],,,,7V51[4:1],,,,8h[4:1],,,,,,,,1-4[8:1],,2,,3V17[4:1],,,,2h[2:1],,,,,,,,5,4,3,2,1,8,73,,3,,35,,3,,37,,7,,71,,1/7-3[8:1],,,,7/4<8[4:1],,,,8>4[4:1],,,,5,,,,7,,5b,,6,,2,,4b,,3,,3,,2b/6,,,,3-7[8:1]/7-4[8:1],,,,3b/7b,,,,8,1,2,3,4/7-3[16:2],,,,4bpp4[1:1]*qq4[1:1],,,,,,,,,,,,,,,,,,,,,,,,,,,,,,,,5h[8:1],,,,,,,,,,,,,,,,5pp5[2:1],,,,,,,,,,,,
4pp6[2:1],,,,3,,,,2,,,,,,,,
{12}2h[12:2],,,4h[6:1],,,3,,,3-5[4:1],,,,,,,,,6h[6:1],,,8h[6:1],,,7,,,,,,7h[6:1],,,8h[6:1],,,6,,,3>7[8:5],,,7,,,6,,,5,,,4>8[8:5],,,8,,,7,,,6,,,5<1[8:5],,,1,,,2,,,3,,,6-1[8:4],,,2,,,3,,,4,,,
{16}1h[4:1]/3,,,,,,2h[4:1]/4,,,,,,3h[4:3],,,,4h[2:1],,,,,,,,,,,,3qq4[2:1],,3,,,,5,,5-1[16:3],,,,,,,,5,,5,,,,7,,7h[4:1],,,,1,8,7,6,5,4,3,2,
1-6[8:1]/7,,6,,1b/5-2[8:1],,,,5b/3,,,,51,,1qq6[2:1]/5,,,,4,,3,,2,,,,1pp4[2:1],,,,17,,,,8h[4:1],,,,,,,,3qq4[2:1],,6pp5[8:3],,3,,,,,,,,,,,,3,,2,,1pp1[8:3],,,,7,,6,,5,,4-8[8:1],,,,2,,2-6[8:1],,,,2/7-4[8:1],,,,7/3-8[8:1],,,,3/6-2[8:1],,,,6bpp5[8:3]/2bpp1[8:3],,,,,,,,,,,,,,6,,74,,,,4h[4:1],,8,7,6,,4,3,2,,5,6,7,,
2/8-3[8:1],,3,,8b/4-7[8:1],,,,4b/6,,,,4pp8[8:3]/8pp4[8:3],,48,,,,,,,,,,,,6V47[8:3],,,,3-8[8:1],,,,3,,,,,,,,1-5[8:1]/7,,28,,3<2[16:7]/1,,,,3/7h[2:1],,,,,,,,3,4,5,6,7,8,1b/5,,5,,3,,3,,7,,47,,36,,2-6[8:1]/5<8[8:1],,,,2/5>1[4:1],,,,1<5[4:1],,,,5,,,,7,,1b,,5,,2,,8b,,4,,6,,2b-6[8:1]/5b-3[8:1],,,,25,,,,8b>4[4:1],,,,4qq7[1:1],5,6,7,8,,,,,,,,,,,,,,,,,,,,,,,,5,4,3,,6,5,4,,5,6,7,,4,,5,,6,,7,,,,46,,,,35,,,,24,,2-5[8:1]/4,,,,5,,6,,7,,,,5,,4,,3,,2,,,,53,,,,64,,,,7,,7,,4,,6,,3,,5,,5,,1h[4:1],,,,7,,7h[1:1],,,,2,,,,4,,,,6,,6>7[2:1],,6,,,,,,,,,,
{1}4bpp4[1:2]*qq4[1:2],,,,
E
,
