&title=レッドブレイバー
&artist=上坂すみれ
&first=0
&des=Tail_Red
&lv_5=13+
&inote_1=
&inote_5=(160.001)
{32},{1},E7/B7/B6/B2/B3/E3/Ch[2:5]f,
{1},
{4},,,
(160)
{16}2bx,4bx,2bx,4bx,2bxh[4:1],,,,,,4h[8:1]/3h[8:1],,,,4/5,,
{16}7bx,5bx,7bx,5bx,7bhx[4:1],,,,,,5h[8:1]/6h[8:1],,,,5/4,,
{16}3bx,1bx,3bx,1bx,3hbx[4:1],,,,,,2h[8:1]/1h[8:1],,,,1/8,,
{16}6bx,8bx,6bx,8bx,6bxh[4:1],,,,,,7h[8:1]/8h[8:1],,,,1/8,,
{16}2bxb,4bx,3hbx[4:1],,,,,,7bx,5bx,6hbx[4:1],,,,,,
{16}1bx-5[8:1]b/8bx-4[8:1]b,,1bx/8bx,,,,Cf,,,,,,,,,,
{4}1-4[8:1]/6,6,4-1[8:1]/5,5,
{8}3>8[8:1]/6,,6,,8>3[8:1]/5,5hx[8:1],,5x,
{4}5-8[8:1]/3,3,8-5[8:1]/4,4,
{8}6-8[8:1]/3,,3,,5-1[8:1]/4,4hx[8:1],,4x,
{4}2-7[8:1]/5,5,7-2[8:1]/4,4,
{8}3^6[8:1]/7,,7,,6^3[8:1]/8,8hx[8:1],,8x,
{4}7^2[8:1]/3,3,2q6[8:1]/4,4,
{16}3bx/6bx,,3bx/6bhx[4:1],,,,2hbx[4:1],,,,7bx,,1bx,8bx,1bx,7bx,
{8}1-4[8:1],6,6,6,4-1[8:1],5,5,5,
{8}3>8[8:1],6,6,6,8>3[8:1],5x,5x,5x,
{8}5-8[8:1],3,3,3,8-5[8:1],4,4,4,
{8}6-8[8:1],3,3,3,5-1[8:1],4x,4x,4x,
{8}2-7[8:1],5,5,5,7-2[8:1],4,4,4,
{8}3^6[8:1],7,7,7,6^3[8:1],8x,8x,8x,
{8}7^2[8:1],3,3,3,2q6[8:1],4,4,4,
{16}3,5,3,5,2,5,2,5,1bx-4b[8:1]*-6b[8:1],,,,,,,,
{16}3bx,5bx,3bx,5bx,3hbx[8:1],,7bx-3b[8:1],,,,7bx,,,,,,
{16}6bx,4bx,6bx,4bx,6bx,,6bxV48b[16:3]/2bxV48b[16:3],,,,2bx/6bx,,,,,,
{8}3/5,2,4/6,7,3/5,2,4/6,7,
{8}3/5,1,4/6,8,3-1b[8:1]/5-7b[8:1],,3/5,,
{16}2bx,4bx,2bx,4bx,2hbx[8:1],,8bx-4b[8:1],,,,8bx,,,,,,
{16}7bx,5bx,7bx,5bx,7bx,,7bxv4b[8:1]/1bxv4b[8:1],,,,7bx/1bx,,,,,,
{8}6/4,7,5/3,2,6/4,7,5/3,2,
{8}6/4,8,5/3,1,6/4,8,5/3,1,
{16}2/4,,2/4,,3,5,4,,7/5,,5/7,,6,4,5,,
{16}2,4,2,4,3,5,3,5,4,6,4,6,5,7,5,7,
{16}4bx-8b[8:1],6,5bx,,,,7bxw3b[8:1],,,,{32}7bx,Cf,,,{16},,,,
{16}2,8,2,4,2,8,2,4,2,8,2,4,2,8,2bV84b[4:1],,
{8},7,6,5V73b[4:1],5,,1,1,
{16}2b-5[8:1],4,3,,2/1,,8,,7-4[8:1],5,6,,7/8,,1,,
{16}2b,4,2,5,2,6,2V48[4:1],7,2b,,,,5,,6,,
{16}7b-2[8:1],8,6,,7/5,,4,,3-6[8:1],2,4,,3/1,,8,,
{16}7bv4[8:1],5,6,,7/8,,1,,2v5[8:1],4,3,,2/1,,8,,
{8}6-3[8:1]/1,5,1-4[8:1]/6,2,6-2[8:1]/1,7,6/4h[8:7],,
{24}8bx,7x,6x,5x,,,8bx,1x,2x,3x,,,8bx,7x,6x,5x,,,8bx/Cf,1x,2x,3x,,,
{16}6,8,6,4,6,8,6,4,6,8,6bpp4b[16:5],,,,6,,
{8},1,2,3qq4b[4:1],3,,6,6,
{16}7b-4[8:1],5,6,,7/8,,1,,2-5[8:1],4,3,,2/1,,8,,
{16}6b,5,6,4,6,3,6V84[4:1],2,6b,,,,1,,2,,
{32}3-8[8:1]/4-8[8:1],,,,,,,,B4,C,B8,,,,,,2x-5[8:1]/1x-5[8:1],,,,,,,,B1,C,B5,,,,,,
{16}4b-8[16:1],,,6b-2[16:1],,,1bV35[8:1],,,,B1,C,B5f,,,,
{16}3b,5,3,5,3,5,3,5,3,5,3,5,3,5,3,5,
{16}2b,6,2,6,2,6,2,6,2,6,2,6,2,6,2,6,
{16}1b,7,1,7,1,7,1,7,1,7,1,7,1,7,1,7,
{16}2bx/6bx,,8bx/4bx,,,,8b-5b[8:1]*z4b[8:1],,,,8b,,,,,
(160.001)
{8}3x/6x,3h[2:1]/6,,E4,,E5,,E6,
{8}6/3,6h[2:1]/3,,B6,,E5,,B3,
{8}3/6,3h[2:1]/6,,D4,,D5,,D6,
{16}2,4,2,4,A1/B1/E1,,,,7,5,7,5,A8/E1/B8,,,,
{8}2/7,2h[2:1]/7,,E4/D4,,E5/D5,,E6/D6,
{8}7/2,7h[2:1]/2,,A6/B6,,E5/D5,,A3/B3,
{8}2/7,2h[2:1]/7,,A4/D4,,A5/D5,,A6/D6,
{16}3,5,3,5,A2/E2/B2,,,,6,4,6,4,A7f/B7/E8,,,,
{8}3h[4:1],8,4h[4:1],1,3h[4:1],8,5h[4:1],1,
{16}3,,7,8,6,,2,4,3h[4:1],,7,,5,,1,,
{16}3/5,,1,,4/6,,1,,3,5,4,,1/8,,6,,
{16}5/7,,2,,4/6,,8,1,7,,2h[4:1],,6,,8,,
{16}3,5,3,5,3,5,3,5,2,3,4,5,1,2,3,4,
{16}8,6,8,6,8,6,8,6,1,2,3,4,2,3,4,5,
{16}3,4,2,5,1,6,8,7,1,2,3,4,8,7,6,5,
{16}4b/2b,,1xqq5[2:1]/5xqq1[2:1],2x/6x,3x/7x,,1bx/5bx,,,,,,,,,,
{1}3bV15^4-8-6b[2:3],
{1}7hb[2:1],
{1}5b-7-4-8-3-1b[2:3],
{1}2hb[2:1],
{1}6bV48b[2:1]*-3b[4:1],
{1}2bV48b[2:1]*-5b[4:1],
{4}2b^5[8:1]/1^6[8:1],A1/A2/D2f,7b^4[8:1]/8^3[8:1],A8/A7/D8f,
{24}2/8hb[8:1],3,4,5,,,1hb[8:1]/7,6,5,4,,,7hb[8:1]/1,2,3,4,,,Cf/8b,7,6,5,,,
{16}2b,8,2,4,2,8,2,4,2,8,2bqq5b[16:5],,,,2,,
{8},8,7,6pp5b[4:1],6,,4,3,
{16}2bv5[8:1],1,3,8,2,,8,,7v4[8:1],8,6,1,7,,2,,
{16}3b,5,3,6,3,7,3qq5[4:1],8,3b,,,,7,,7,,
{32}8-6[8:1]/5-1[8:1],,,,,,,,B5,C,B1,,,,,,3x-1[8:1]/8x-4[8:1],,,,,,,,B8,C,B4,,,,,,
{16}3b-8[16:1],,,6b-3[16:1],,,1bV35[8:1],,,,B1,C,B5f,,,,
{16}4b,6,4,6,4,6,4,6,4,6,4,6,4,6,4,6,
{16}3b,7,3,7,3,7,3,7,3,7,3,7,3,7,3,7,
{16}2b,8,2,8,2,8,2,8,2,8,2,8,2,8,2,8,
{16}1b,1,1,1,1,1,1,1,1bv4b[8:1]*s5b[8:1],,,,,,,,
{16}3b,4,3,4,3,4,3,4,3,4,3,4,3,4,3,4,
{16}2b,5,2,5,2,5,2,5,2,5,2,5,2,5,2,5,
{16}1b,6,1,6,1,6,1,6,8b,7,8,7,8,7,8,7,
{16}2bx/6bx,,8b/4b,,,,8b-5b[8:1]*z4b[8:1],,,,8b,,,,,,
{16}2bx,4bx,2bx,3bx,2bhx[4:1],,,,,,4h[8:1]/3h[8:1],,,,4/5,,
{16}7bx,5bx,7bx,6bx,7hbx[4:1],,,,,,5h[8:1]/6h[8:1],,,,5/4,,
{16}3bx,1bx,3bx,8bx,3hbx[4:1],,,,,,2h[8:1]/1h[8:1],,,,1/8,,
{16}6bx,8bx,6bx,1bx,6hbx[4:1],,,,,,7h[8:1]/8h[8:1],,,,1/8,,
{16}2bx,4bx,3bx,1bx,2hbx[4:1],,4,,5h[4:1],,3,,4,,5,,
{16}7bx,5bx,6bx,8bx,7hbx[4:1],,5,,4h[4:1],,6,,5,,4,,
{16}3bx,1bx,2bx,4bx,3hbx[4:1],,1,,8h[4:1],,2,,1,,8,,
{16}6bx,8bx,7bx,5bx,6hbx[4:1],,8,,1h[4:1],,7,,8,,1,,
{16}2x,3x,4x,5x,3x,4x,5x,6x,,,3b/6b,,,,2b/7b,,
{4},1bv8^5b[1:4]/8bv1^4b[1:4],,,
