&title=Dash
&artist=MDK
&first=-0.7
&lv_5=13
&des_5=简心单视
&inote_5=
(128){4},,{2}Ch[8:3],
{4}8-6-4[8:1]/4-2-8[8:1],8/4,{16}6/2v4[8:1],{8},{16}1,{8}2,8,
{4}7h[8:1]/5h[8:1],{8}4/6,{16}4,3v5[8:1],,7v1[8:1],,3,{4},8-6-4[8:1]/4-2-8[8:1],
8/4,{16}6/2,{8},{16}8,{8}4-8[16:1],5/3,
4x,{16}7,6h[8:1],,1,6,2,5x,5h[8:1],,4,6,3,5,2,
4,4,3,3,{4}C/B6/B2,{16}1/5,{8},{16}7,{8}3-7[16:1],6/2,
3,6x,8x/5x,{16}2x,2xv4[8:1],,6xv8[8:1],,2,{4},{16}7/5,
6,5,6,5/4,3,4,3,2/4,5,3,5,6/4,5,7,5,
6-1-3[8:1],4,6,4,{4}6x,{2}Cfh[4:1],
{4}6bx-1[16:1]/2bx-5[16:1],6/2,{16}8/4-2-8[8:1],{8},{16}7,{8}4,6,
1/5h[4:1],E2,E3,{16}E4,6v3[8:1],,2/7,,6,{4}E1,
8x-3[16:1]/4x-7[16:1],8/4,{16}2/6-1[16:1],{8},{16}3,{8}6,4,
{16}8,5,7,4,6h[16:3],{8},{16}3h[8:1],,5x,,2,4x,3,5,1,
{4}4x-6[16:1]*-2[16:1],4,{8}7/1,{16}4,3,5-7-1[8:1],2,{8}4V26[8:1],
{16}5,{8},,,{16}5/8V27[8:1],,4-6-3[8:1],{8}4,{4},1-7[16:1]*-3[16:1],
1,{16}6h[8:1]/4h[8:1],{8},{16}5h[8:1]/3h[8:1],{8},6/2,
{16}7b/8b,{8},{16}2b/3b,{8},6b/4b,{16}5x/3x,5x/3x,,6x/4x,{8}6x/4x,7/2,
8bx,8,{16}2,1,3,4,{8}2h[4:1],1h[16:3],,C,
3h[8:1],{16}5,5,,6/4,,7h[16:3],{8},8,{16}7x/1x,2,3,4,
{4}6/5,{8}4/3,{16}2,2h[8:1],,8,{8}8h[8:1],{16}1,7,5,6,
{8}4-1[8:1],{16}6,6,4x,7,{8}7,8-5[8:1],{16}3,3,8x,2,{8}2,
{4}1h[8:1]/4h[8:1],{16}7,8,6,5,{8}7h[8:1],4h[8:1],{16}6,3,5,2,
8,1,7,2>7[16:7],8,1,,2x,{8},8,Cf,1,
8xh[4:1],6,{16}5x,5h[16:3],{8},6h[8:1],4h[8:1],5h[8:1],3h[8:1],
{16}7bx,6,5,4,3,2,1,8,7bx,6,5,4,3,2,1-4[4:3],8,
{1},,6-3[8:5],
6q3[8:5],
{4}E5/E6/E8/E1/B1/B4/Cf,{8}3,3,3,3,3,3,
{4}Cf/D1/A1/D2/A2/B2/B3/A3,{8}6,6,6,6,6,6,
B6f/E8/B7/E6,{16}4,5,4,5,4,5,3,6,3,6,2,7,2,7,
1h[32:1],8h[32:1],1h[32:1],8h[32:1],1h[32:1],8h[32:1],{8}1xh[4:1],{4}8w4b[16:1],{64}B8,Cf,{32}B5/B3,{16},,,{4}6h[4:1]/2V48[8:1],
{8}2x,{16}7,7,{8}1h[8:1],5h[8:1],{16},3,3-1b[16:1],3,
{8}4xh[8:1],3b-7b[16:1],5xh[8:1],3b,6,{64}E1,B1,{32}B2,{16},{64}B6,B5,{32}E5,{16},{64}B2,B3,{32}E4,{16},{8}5xh[8:1],
3h[8:1],7x,6h[8:1],4xh[8:1],8<1[4:1],1x,8h[4:1],
{4},{8}7/2-4-1-5[4:1],6bh[8:3],{2}2,
{16}7-5-1[8:1],{32}A2,D3,{16}A3,A4,{8}7x,{16}2,2,{8}8h[8:1],4h[8:1],6-1b[16:1],{16}3-8b[16:1],3,
{8}6b-3b[16:1],3b,6b,{16}2b,2b,,4h[8:1],,3,{8}3xh[8:1],5x,
{4}6bh[4:1],{16}4,5,3,4,{8}2h[8:1],1h[8:1],8xh[8:1],7x,
,8>3[8:1]/7q4[8:1],5/6,8/7,,{16}5,{32}4,3,{16}2,6,3,7,
{4}4b/8-6[8:1],{16}8x-4[8:1],2,2,2,8x-5[8:1],3,3,3,8x,4,4,4,
6bxh[8:1]/3bxh[8:1],{8},{16}7bxh[8:1]/2bxh[8:1],{8},Cf/E8/E7/E6/E1/E5/E2/E3/E4,,8h[8:1],{16}3x,7,2,6,
{64}1-5[8:1],2,3,4,5,6,7,8,{8},{16}1x-3[8:1],6,6,6,1x-4[8:1],7,7,7,1x,8,8,8,
{8}5h[8:1],7h[8:1],2x,1s5[4:1],8,A8,A7,A6,
{4}8b/4-2[8:1],{16}4x-8[8:1],7,7,7,4x-1[8:1],6,6,6,4x,5,5,5,
6bxh[8:1]/2bxh[8:1],{8},{16}7bxh[8:1]/3bxh[8:1],{8},Cf/E1/E8/E7/E2/E3/E6/E5/E4,,{16}2,4,3V16[8:1],3,5,5,
{4}3b,{16}7x,7,5,6,{8}4/5h[4:1],3,2,5x/1bh[8:7],
,E6,E7,E8,
E
