&title=ヂェっく□ /˙ꓕⱯƎℲ 鏡音リン 初音ミク 鏡音レン 巡音ルカ KAITO MEIKO
&artist=.₄ₙュぅ
&first=1.25
&des=S2lyYQ==
&lv_5=14+
&lv_7=15?
&inote_1=
&inote_5=(244)
{16}
3-1[8:1],,,,5,,,,3,5,3,5,4,6,4,6,,2b,,6-8[8:1],,,,2,,,,3,5,3,5,2,6,2,6,,1b,,
2-4[8:1],,,,8,,,,2,8,2,8,1,7,1,7,,3b,,7-5[8:1],,,,3,,,,2,8,2,8,3,7,3,7,,
46,,28,,35,,17,,2,6,2,6,3,5,3,5,,4b/6b,,2x/8x,,3,7,3,2-4[8:1],,2,,2,,8,,7-5[8:1],,7,,7,,1,,2,,3,,4,,56,,7,,8b,,1b,1b,1b,,2b/8b,,
45,,17,,45,,25,,3,6,4,7,3,8,2,1,38,,
3,5,3,5,2,6,2,6,1,7,1,7,8b,8b,8b,,1b/7b,,,,37,,28,,1,7,2,6,3,5,2,5,3,6,,2,,35,,46,,7,,18,,27,,35,,46,,4b,4b,4b,,3b/5b,,,,
7>2v4[2:1],,,,4b,,,,E6,,E7,,E8,,E1,,2,,3,,4,,5,,8,,7,,6,,5,,46,,46,,46,,5w1[8:1],,A5f,,,,,,,
2,,5,,3,,6,,,35,,35,,26,,26,,1-5[8:1]/7-3[8:1],,,,,,,,,,,
4-1[8:1],,5,,4,,5,,4-1[8:1],,3,,4,,5,,5,,5,,5-8[8:1],,4,,5,,4,,5-8[8:1],,6,,5,,4,,4,,4,,4,,4,4,4,4,4,4,4,4,4,4,4,4,4,4,35,,,,35,,26,,26,,17,,,,
1>5[2:1],,,,,,C,,,,,,,,1>7[2:2],,,,,,,,,,C,,,,,,,,1>8b[8:6],,,,,,,,,,2p7q2[1:1],
,,,,,,,,,C,,,,,,,,,,6,,,,5,,,,4,,,,3,,,,5,,
26,,,,26,,37,,,,37,,15,,,,4qq4qq4qq4[8:6]/8qq8qq8qq8[8:6]b,,48,,,,,,,,,,,,,,,,,,,,
A2,,A3,,A4,,A5,,A1,,A8,,A7,,A6,,5xw1[8:1],,,,,,,,37,,3,,,28,,2,,,1b,,,,,{32},{16}
(209)
2>5[8:1],,,,1v6[8:1],,,,2>5[8:1],,,,1v6[8:1],,,,2>5[8:1],,,,1v6[8:1],,,,2>5[8:1],,,,1v6[8:1],,,,2>5[8:1],,,,1v6[8:1],,,,2>5[8:1],,,,1v6[8:1],,,,2>5[8:1]b,,,,1v6[8:1]b,,,,2,,2,,1,,,,
2>5[8:1],,,,1v6[8:1],,,,2>5[8:1],,,,1v6[8:1],,,,2>5[8:1],,,,1v6[8:1],,,,2>5[8:1],,,,1v6[8:1],,,,2>5[8:1],,,,1v6[8:1],,,,2>5[8:1],,,,1v6[8:1],,,,2>5[8:1]b,,2,,1v6[8:1]b,,1,,2b,,,,37,,,,
2>5[8:1],,2,,1v6[8:1],,1,,2>5[8:1],,2,,1v6[8:1],,1,,2>5[8:1],,2,,1v6[8:1],,1,,2>5[8:1],,2,,1v6[8:1],,1,,2>5[8:1],,2,,1v6[8:1],,1,,2>5[8:1],,2,,1v6[8:1],,1,,2>5[8:1]b,,2,,1v6[8:1]b,,1,,2b>5[8:1]b,,2,,1b,,,,
2>5[8:1],,1v6[8:1],,2,,1,,2>5[8:1],,1v6[8:1],,2,,1,,2>5[8:1],,1v6[8:1],,2,,1,,2>5[8:1],,1v6[8:1],,2,,1,,2>5[8:1],,1v6[8:1],,2,,1,,2>5[8:1],,1v6[8:1],,2,,1,,2>5[8:1],,1v6[8:1],,2,,1,,2>5[8:1]b,,1v6[8:1]b,,2b,,1b,,E5f,,,,,,,,,,,,,,,,
3,,5,,4,6,4,,37,,37,,26,,26,,3,,5,,4,,4,,46,,37,,28,,,,3,5,3,4,6,4,2,6,2,,35,,35,,26,,
3-6[8:1]b,,,,2-7[8:1]b,,,,3-6[8:1]b,,,,2-7[8:1]b,,,,3-6[8:1]b,,,,2-7[8:1]b,,,,3-6[8:1]b,,,,2-7[8:1]b,,,,A2f,,,,
4x,E4,B3,B2,E2/5x,E6,B6,B7,E8,4x,E4,B3,B2,E2/5x,E6,B6,B7,E8,
4x,E4,B3,B2,E2/5x,E6,B6,B7,E8,4x,E4,B3,B2,E2/5x,E6,B6,B7,E8,
4x,E4,B3,B2,E2/5x,E6,B6,B7,E8,4x,E4,B3,B2,E2/5x,E6,B6,B7,E8,
4x,E4,B3,B2,E2/5x,E6,B6,B7,E8,
{24}4x,E4,B3,B2,E2/5x,E6,B6,B7,E8,
4x,E4,B3,B2,E2/5x,E6,B6,B7,E8,4x,E4,B3,B2,E2/5x,E6,B6,B7,E8,
4x,E4,B3,B2,E2/5x,E6,B6,B7,E8,4x,E4,B3,B2,E2/5x,E6,B6,B7,E8,
4x,E4,B3,B2,E2/5x,E6,B6,B7,E8,4x,E4,B3,B2,E2/5x,E6,B6,B7,E8,
4x,E4,B3,B2,E2/5x,E6,B6,B7,E8,4x,E4,B3,B2,E2/5x,E6,B6,B7,E8,
4x,E4,B3,B2,E2/5x,E6,B6,B7,E8,
{32}4x,E4,B3,B2,E2/5x,E6,B6,B7,E8,
4x,E4,B3,B2,E2/5x,E6,B6,B7,E8,4x,E4,B3,B2,E2/5x,E6,B6,B7,E8,
4x,E4,B3,B2,E2/5x,E6,B6,B7,E8,4x,E4,B3,B2,E2/5x,E6,B6,B7,E8,
4x,E4,B3,B2,E2/5x,E6,B6,B7,E8,4x,E4,B3,B2,E2/5x,E6,B6,B7,E8,
4x,E4,B3,B2,E2/5x,E6,B6,B7,E8,4x,E4,B3,B2,E2/5x,E6,B6,B7,E8,
4x,E4,B3,B2,E2/5x,E6,B6,B7,E8,4x,E4,B3,B2,E2/5x,E6,B6,B7,E8,
4x,E4,B3,B2,E2/5x,E6,B6,B7,E8,4x,E4,B3,B2,E2/5x,E6,B6,B7,E8,
4x,E4,B3,B2,E2/5x,E6,B6,B7,E8,4x,E4,B3,B2,E2/5x,E6,B6,B7,E8,4x,E4,B3,B2,E2/5x,E6,B6,B7,E8,4x,E4,B3,B2,E2/5x,E6,B6,B7,E8,
4x,E4,B3,B2,E2/5x,E6,B6,B7,E8,4x,E4,B3,B2,E2/5x/E6,B6,B7,E8f,
1hb[8:1],,,,,,{16}1,1,1,1,1,1,1,1,1b,
{1}Chf[8:6],{8},,,,
{16}2>5[8:1],,,,1v6[8:1],,,,2,,,,3,,,,4,,4,,5,,5,,4,4,6,6,3,3,5,5,4,,4,,4,,4,,3,5,3,5,3,5,3,5,2-6[8:1],,1,1,2,,,,1,1,,,2,2,2,2,3,3,3,3,4,4,4,4,5,,46,,46,,46,,6,,5,,6,,5,,6,5,6,5,6,5,6,5,6,6,6,5,5,5,5,6,47,,47,,38,,38,,2,2,2,2,1,1,1,1,2,1,2,1,2,1,2,1,38,,38,,4x/7x,4x/7x,4x/7x,4x/7x,5,6,5,6,5,6,5,6,5,5,5,5,5,5,5,5,4,,4,,4,,4,,3,5,3,5,3,5,3,5,2,6,2,6,2,6,2,6,2,8,2,8,2,8,2,8,2,6,2,6,2,6,2,6,2,4,2,4,2,4,2,4,2,3,2,3,2,2,2,2,2,2,2,2,2,4,2,4,2,4,2,4,2,1,2,1,2,1,2,1,2,1,2,1,2,6,2,6,2,6,2,6,2,6,2,6,4,5,4,5,4,5,4,5,4,5,4,5,
{1}4bw8[42#64:1],,
(104){16}4-1[8:1],,,6,4,,,,56,,34,,2,1,8,7,3,5,4,6,2,5,4,7,3,6,2,7,4>5[8:2],
,,,,5,,4,,,
5-8[8:1],,,3,5-2[8:1],,4,,57,,,E6,,E7,,A1,A2,A3,A4,56,,7,,18,,2,,3,4,5,6pp3[8:4],,,,,,,,,,,,,,,,,
(209)
2>5[8:1],,2,,1v6[8:1],,1,,2>5[8:1],,2,,1v6[8:1],,1,,2>5[8:1],,2,,1v6[8:1],,1,,2>5[8:1],,2,,1v6[8:1],,1,,2>5[8:1],,2,,1v6[8:1],,1,,2>5[8:1],,2,,1v6[8:1],,1,,2>5[8:1]b,,2,,1v6[8:1]b,,1,,2b>5[8:1]b,,2,,1b,,,,
2>5[8:1],,1v6[8:1],,2,,1,,2>5[8:1],,1v6[8:1],,2,,1,,2>5[8:1],,1v6[8:1],,2,,1,,2>5[8:1],,1v6[8:1],,2,,1,,2>5[8:1],,1v6[8:1],,2,,1,,2>5[8:1],,1v6[8:1],,2,,1,,2>5[8:1],,1v6[8:1],,2,,1,,2>5[8:1]b,,1v6[8:1]b,,2b,,1b,,
4x,,,,4x,,,,35,,35,,35,,35,,2,6,2,6,3,5,3,5,4,4,4,4,4,4,4,4,3,5,3,3,3,5,3,3,3,5,3,3,3,2,4,4,2,2,2,4,4,2,2,2,2,2,4,2,4,2,5,2,5,2,6,2,6,2,7,2,7,2,8,2,8,1,1,1,1,8b,1,1,1,8b,1b,1b,,1b,1b,,28,,28,,28,,28,,{32}2,3,,7,6,,3,4,,8,7,,{16}26,,26,,26,,4,6,3,7,28,,,,46,,5,5,5w1[8:1],5,5,5,5b,,,,,,,,,,,,,,,,E
&inote_7=(244)
{16}
3-1[8:1],,,,5,,,,3,5,3,5,4,6,4,6,,2b,,6-8[8:1],,,,2,,,,3,5,3,5,2,6,2,6,,1b,,
2-4[8:1],,,,8,,,,2,8,2,8,1,7,1,7,,3b,,7-5[8:1],,,,3,,,,2,8,2,8,3,7,3,7,,
46,,28,,35,,17,,2,6,2,6,3,5,3,5,4,6,4,6,3,7,3,7,2-4[8:1],,,1,2,,,,7-5[8:1],,,8,7,,1,,2,,3,,4,,56,,7,,8,,1b,1b,1b,,28,,45,,17,,45,,2,5,3,6,4,7,3,8,2,1,C,,
3,5,3,5,2,6,2,6,1,7,1,7,8,8,8,8,C,,4,6,3,7,2,8,1,7,2,6,3,5,2,5,3,6,,2,,35,,46,,7,,18,,27,,35,,46,,4,4,4,,35,,,,
7>2v4[2:1],,,,4b,,,,E6,,E7,,E8,,E1,,2,,3,,4,,5,,8,,7,,6,,5,,46,,46,,46,,5w1[8:1],,A5f,,,,,,,
2,,5,,3,,6,,,35,,35,,26,,26,,1-5[8:1]/7-3[8:1],,,,,,,,,,,
4-1[8:1],,5,,4,,,,4-1[8:1],,3,,4,,5,,5,,5,,5-8[8:1],,4,,5,,,,5-8[8:1],,6,,5,,4,,4,,4,,4,,4,4,4,4,4,4,4,4,4,4,4,4,4,4,35,,,,35,,26,,26,,17,,,,
1>5[2:1],,,,,,C,,,,,,,,1>7[2:2],,,,,,,,,,C,,,,,,,,1>8b[2:1],,,,,,,,,,2p7q2[1:1],
,,,,,,,,,C,,,,,,,,,,6,,,,5,,,,4,,,,3,,,,5,,
26,,26,,37,,37,,,,15,,15,,,,4qq4qq4qq4[8:6]/8qq8qq8qq8[8:6]b,,48,,,,,,,,,,,,,,,,,,,,
A2,,A3,,A4,,A5,,A1,,A8,,A7,,A6,,5xw1[8:1],,,,,,,,37,,,,,28,,,,,1b,,,,,{32},{16}
(209)
2>5[8:1],,,,1v6[8:1],,,,2>5[8:1],,,,1v6[8:1],,,,2>5[8:1],,,,1v6[8:1],,,,2>5[8:1],,,,1v6[8:1],,,,2>5[8:1],,,,1v6[8:1],,,,2>5[8:1],,,,1v6[8:1],,,,2>5[8:1]b,,,,1v6[8:1]b,,,,2,,,,1,,,,
2>5[8:1],,,,1v6[8:1],,,,2>5[8:1],,,,1v6[8:1],,,,2>5[8:1],,,,1v6[8:1],,,,2>5[8:1],,,,1v6[8:1],,,,2>5[8:1],,,,1v6[8:1],,,,2>5[8:1],,,,1v6[8:1],,,,2>5[8:1]b,,2,,1v6[8:1]b,,1,,2b,,,,37,,,,
2>5[8:1],,2,,1v6[8:1],,1,,2>5[8:1],,2,,1v6[8:1],,1,,2>5[8:1],,2,,1v6[8:1],,1,,2>5[8:1],,2,,1v6[8:1],,1,,2>5[8:1],,2,,1v6[8:1],,1,,2>5[8:1],,2,,1v6[8:1],,1,,2>5[8:1]b,,2,,1v6[8:1]b,,1,,2b>5[8:1]b,,2,,1b,,,,
2>5[8:1],,1v6[8:1],,2,,1,,2>5[8:1],,1v6[8:1],,2,,1,,2>5[8:1],,1v6[8:1],,2,,1,,2>5[8:1],,1v6[8:1],,2,,1,,2>5[8:1],,1v6[8:1],,2,,1,,2>5[8:1],,1v6[8:1],,2,,1,,2>5[8:1],,1v6[8:1],,2,,1,,2>5[8:1]b,,1v6[8:1]b,,2b,,1b,,E5f,,,,,,,,,,,,,,,,
3,,5,,4,6,4,,37,,37,,26,,26,,3,,5,,4,,4,,46,,37,,28,,,,3,5,3,4,6,4,2,6,2,,35,,35,,26,,
3-6[8:1]b,,,,2-7[8:1]b,,,,3-6[8:1]b,,,,2-7[8:1]b,,,,3-6[8:1]b,,,,2-7[8:1]b,,,,3-6[8:1]b,,,,2-7[8:1]b,,,,A2f,,,,,,,,
15,26,37,48,37,26,15,48,15,26,37,48,37,26,15,48,15,26,37,48,37,26,15,48,15,26,37,48,
37,26,15,48,15,26,37,48,
37,26,15,48,15,26,37,48,37,26,15,48,15,26,37,48,37,26,15,48,15,26,37,48,
37,26,15,48,15,26,37,48,
37,26,15,48,15,26,37,48,37,26,15,48,15,26,37,48,
37,26,15,48,15,26,37,48,37,26,15,48,15,26,37,48,
37,26,15,48,15,26,37,48,37,26,15,48,15,26,37,48,
{24}
3x/7x,2x/6x,1x/5x,4x/8x,1x/5x,2x/6x,3x/7x,4x/8x,3x/7x,2x/6x,1x/5x,4x/8x,1x/5x,2x/6x,3x/7x,4x/8x,3x/7x,2x/6x,1x/5x,4x/8x,1x/5x,2x/6x,3x/7x,4x/8x,3x/7x,2x/6x,1x/5x,4x/8x,1x/5x,2x/6x,3x/7x,4x/8x,3x/7x,2x/6x,1x/5x,4x/8x,1x/5x,2x/6x,3x/7x,4x/8x,3x/7x,2x/6x,1x/5x,4x/8x,1x/5x,2x/6x,3x/7x,4x/8x,
{32}
3x/7x,2x/6x,1x/5x,4x/8x,1x/5x,2x/6x,3x/7x,4x/8x,3x/7x,2x/6x,1x/5x,4x/8x,1x/5x,2x/6x,3x/7x,4x/8x,3x/7x,2x/6x,1x/5x,4x/8x,1x/5x,2x/6x,3x/7x,4x/8x,3x/7x,2x/6x,1x/5x,4x/8x,1x/5x,2x/6x,3x/7x,4x/8x,3x/7x,2x/6x,1x/5x,4x/8x,1x/5x,2x/6x,3x/7x,4x/8x,3x/7x,2x/6x,1x/5x,4x/8x,1x/5x,2x/6x,3x/7x,4x/8x,3x/7x,2x/6x,1x/5x,4x/8x,1x/5x,2x/6x,3x/7x,4x/8x,3x/7x,2x/6x,1x/5x,4x/8x,1x/5x,2x/6x,3x/7x,4x/8x,3x/7x,2x/6x,1x/5x,4x/8x,1x/5x,2x/6x,3x/7x,4x/8x,3x/7x,2x/6x,1x/5x,4x/8x,1x/5x,2x/6x,3x/7x,4x/8x,3x/7x,2x/6x,1x/5x,4x/8x,1x/5x,2x/6x,3x/7x,4x/8x,3x/7x,2x/6x,1x/5x,4x/8x,1x/5x,2x/6x,3x/7x,4x/8x,3x/7x,2x/6x,1x/5x,4x/8x,1x/5x,2x/6x,3x/7x,4x/8x,3x/7x,2x/6x,1x/5x,4x/8x,1x/5x,2x/6x,3x/7x,4x/8x,
{1}Ch[8:5],{8},,,,,,,,,,
{16}2>5[8:1],,,,1v6[8:1],,,,2,,,,3,,,,4,,4,,5,,5,,4,4,6,6,3,3,5,5,4,,4,,4,,4,,3,5,3,5,3,5,3,5,2-6[8:1],,1,1,2,,,,1,1,,,2,2,2,2,3,3,3,3,4,4,4,4,5,,46,,46,,46,,6,,5,,6,,5,,6,5,6,5,6,5,6,5,6,6,6,5,5,5,5,6,47,,47,,38,,38,,2,2,2,2,1,1,1,1,2,1,2,1,2,1,2,1,38,,38,,4x/7x,4x/7x,4x/7x,4x/7x,5,6,5,6,5,6,5,6,5,5,5,5,5,5,5,5,4,,4,,4,,4,,3,5,3,5,3,5,3,5,2,6,2,6,2,6,2,6,2,8,2,8,2,8,2,8,2,6,2,6,2,6,2,6,2,4,2,4,2,4,2,4,3,3,3,3,3,3,3,3,2,4,2,4,2,4,2,4,2,4,2,4,2,1,2,1,2,1,2,1,2,1,2,1,2,6,2,6,2,6,2,6,2,6,2,6,4,5,4,5,4,5,4,5,4,5,4,5,
{1}4b,,
(104){16}4-1[8:1],,,6,4,,,,56,,34,,2,1,8,7,3,5,4,6,2,5,4,7,3,6,2,7,4>5[8:2],
,,,,,,,,,
5-8[8:1],,,3,5-2[8:1],,4,,57,,,E6,,E7,,A1,A2,A3,A4,56,,7,,18,,2,,3,4,5,6pp3[8:4],,,,,,,,,,,,,,,,,
(209)
2>5[8:1],,2,,1v6[8:1],,1,,2>5[8:1],,2,,1v6[8:1],,1,,2>5[8:1],,2,,1v6[8:1],,1,,2>5[8:1],,2,,1v6[8:1],,1,,2>5[8:1],,2,,1v6[8:1],,1,,2>5[8:1],,2,,1v6[8:1],,1,,2>5[8:1]b,,2,,1v6[8:1]b,,1,,2b>5[8:1]b,,2,,1b,,,,
2>5[8:1],,1v6[8:1],,2,,1,,2>5[8:1],,1v6[8:1],,2,,1,,2>5[8:1],,1v6[8:1],,2,,1,,2>5[8:1],,1v6[8:1],,2,,1,,2>5[8:1],,1v6[8:1],,2,,1,,2>5[8:1],,1v6[8:1],,2,,1,,2>5[8:1],,1v6[8:1],,2,,1,,2>5[8:1]b,,1v6[8:1]b,,2b,,1b,,
4x,,,,4x,,,,35,,35,,35,,35,,2,6,2,6,3,5,3,5,4,4,4,4,4,4,4,4,3,5,3,3,3,5,3,3,3,5,3,3,3,2,4,4,2,2,2,4,4,2,2,2,2,2,4,2,4,2,5,2,5,2,6,2,6,2,7,2,7,2,8,2,8,1,1,1,1,1,1,1,1,1,1,1,1,1,1,1,28,,28,,28,,28,,3,7,3,7,3,7,3,7,4,6,4,6,4,6,4,6,5,5,5,5,5,5,5,5,5,5,5,5,5b,,,,,,,,,,,,,,,,E
