&title=The Clockwork Rose -時計仕掛けの薔薇少女
&artist=葉月ゆら
&first=0.02
&des=NekoMuseigen
&lv_4=11
&lv_5=14
&inote_4=(135)
{1},
{16}
36,,4h[8:1],,5h[8:1],,2h[8:1],,4-8[8:1],,,,3-7[8:1],,,,5-1[8:1],,,,,,3,,34,,25,,34,,
5,,75,,6,,24,,3,,5,4,5,4,5h[16:2],,{16}3,,{16}24,,35,,46,,57,,
4,5,4,5,4b,,5,,
36,,5h[8:1],,4h[8:1],,7h[8:1],,5-1[8:1],,,,6-2[8:1],,,,4-8[8:1],,,,,,6,,65,,74,,65,,
4,,24,,3,,75,,6,,4,5,4,5,4h[16:2],,{16}6,,{16}75,,64,,53,,42,,
5,4,5,4,5b,,72,,18,,
{16}
18,,27,,,,34,,34,,25,,,,56,,56,,47,,,,34,,34,,2/5h[4:1],,,,
3-1[8:1],,,,8,,,,7-5[8:1],,,,4,,,,
3v8[16:3],,,,7,,,,{16}6-2[16:2],,,,4,,,,45,,
45,,36,,,,21,,21,,38,,,,87,,87,,16,,2,,34,,34,,4/5-1[8:1],,,,
3,,3,,2,,2,,71,,71,,68,,68,,57,,64,,35,,24,,{16}5<8[16:2]/3,,
,,,,,,
{16}
1pp4[8:5],,,,,,,,7h[8:3],,,,,,,,7qq4[8:5],,,,1,,,,1h[8:3],,,,,,,,
1>6[8:4],,,,,,,,7h[8:3],,,,,,,,7<4[8:2],,,,2,,,,1>4[8:2],,,,,,,,
7,,6,,54,,54,,2,,3,,45,,45,,
6,,7,,81,,18,,3,,2,,18,,18,,
1/8h[8:3],,,3,,,4,,3h[8:3],,,7,,,6,,
7h[8:3],,,2,,,1,,8h[8:3],,,2,,,3,,
82,,,56,,,23,,,78,,,45,,36,,,
4,5,4,5,4,5,4,5,4,5,4,
3h[8:1]/6h[8:1],,,,1b/8b,,,3b/4b,,2b/5b,,1b/8b,,,
27,,36,,45,,6-1[8:1],,,,3-8[8:1],,,,7-5[8:1],,,,4,,
,,4b/5b,,,7b/8b,,6b/1b,,4b/5b,,,
36,,27,,18,,2-5[8:1],,,,6-1[8:1],,,,4-2[8:1],,,,8,,,,
1b/8b,,,5b/6b,,4b/7b,,1b/8b,,,
27,,36,,45,,3-8[8:1],,,,6-1[8:1],,,,2-4[8:1],,,,5,,,,
4-8[8:1],,,,6,,6,,5-1[8:1],,,,3,,3,,
4h[8:1],,6,,8h[8:1],,2,,6h[8:1],,4,,2h[8:1],,8,,
3h[8:4],,7,,7,,,,8h[8:4],,4,,4,,,,3h[8:4],,6,,6,,,,7h[8:4],,5,,5,,,,
4-2[8:1],,5,,5,,5,,5-7[8:1],,4,,4,,4,,
{16}48,,,37,,,62,,
5<8[8:1]/1>4[8:1],,,,,,,,
34,,25,,3,4,,2/5h[16:3],,,3,,45,,6,,
65,,74,,6,5,,7/4h[16:3],,,6,,45,,4,,
36,,72,,1,8,,2/7h[16:3],,,1,,81,,1,,
24,,35,,46,,57,,
{16}8,1,8,1,8b,,,,
87,,61,,7,8,,6/1h[16:3],,,7,,81,,2,,
21,,38,,2,1,,3/8h[16:3],,,2,,81,,8,,
72,,36,,5,4,,6/3h[16:3],,,5,,45,,5,,
68,,71,,82,,13,,
{16}4,5,4,5,4,5,4,5,
{4}4>5[4:3],,,,,,
{4}4/5v6[4:2],4,4,4,5/4v2[4:2],5,5,5,4/5v8[4:2],4,4,4,5/4-1[4:2],5,5,5,
{8}34,34,34,34,56,56,56,56,34,34,24,24,56,56,57,57,
{16}3,4,3,4,3,,25,,6,5,6,5,6,,74,,
{4}1-6[4:1]/8-3[4:1],,,{8}45,36,{4}4-7[4:1]/5-2[4:1],,,
{16}63,,63
,,4b/5b,,2b,1b,,3b/8b,,4b/5b,,,
36,,27,,18,,7<4[8:1],,,,2>5[8:1],,,,6<8[8:1],,,,1,,
,,1b/8b,,6b,5b,,7b/4b,,1b/8b,,,
27,,36,,45,,3>8[8:1],,,,7<4[8:1],,,,1>3[8:1],,,,5,,,,
4b/5b,,7b,8b,,1b/6b,,4b/5b,,,
36,,27,,18,,2>5[8:1],,,,7<4[8:1],,,,3>1[8:1],,,,8,,,,
8-4[8:1],,,,2,,2,,1-5[8:1],,,,7,,7,,
8h[8:1],,2,,4h[8:1],,6,,2h[8:1],,8,,6h[8:1],,4,,
7h[8:4],,3,,3,,,,4h[8:4],,8,,8,,,,7h[8:4],,2,,2,,,,3h[8:4],,1,,1,,,,
8-6[8:1],,1,,1,,1,,1-3[8:1],,8,,8,,8,,
{16}84,,,73,,,26,,
1>4[8:1]/5<8[8:1],,,,,,,,
3b/6b,,5,4,5,,36,,5-1[8:1]/2,,,,4-8[8:1],,,,6-2[8:1],,,,,,4,,35,,46,,35,,
4,,75,,6,,24,,3,,5,4,5,4,5h[16:2],,{16}3,,{16}24,,35,,46,,57,,
4,5,4,5,4b,,27,,
27,,4,5,4,,63,,4-8[8:1]/7,,,,5-1[8:1],,,,3-7[8:1],,,,,,5,,64,,53,,64,,
4,,24,,3,,75,,6,,13,,2,,86,,{16}7,,{16}34,,56,,24,,57,,
4,5,4,5,3,6,2,7,{4}1-5[8:7],,,,,,,,
&inote_5=(135)
{1},
{16}
63,,5,5,4,5,,6,5,,4,5,,6,5,,7/5h[16:3],,7,7,5,6h[8:1],,5,6-1[16:2],,54,,6,,
,,3,4,2,2,6,5,7,7,{32}7,6,5h[16:3],,{24}3,2,1,8,,,{16}67,,5,1,6,2,7,3,8,4,
{32}1-5[8:1],8,7,6,{16}5,,1b/5b,,,,
63,,4,5,2h[1024:1],5,,4,5,,4,5,2h[1024:1],5,,4,5,,4,5,2h[1024:1],5,,3,3-8[16:2],,45,,3,,
,,6,5,7,7,3b,4,2,2,{32}2,3,{16}4,7,5,6b,4,5,3,4,2,5,5,4b,6,3,3,
{24}8,7,6,2,3,4,{32}51,2,3,4,5,6,7,8,1b/5b,,,,
{16}
6,6,5,,
3,4,2,,
6,5,,2,
4,3,4,,
6,5,74,,
3,4,2h[8:1],,
6,5,7h[8:1],,
8,7,
1h[8:2]/6,,4,4,,6,5,,7h[8:2]/4,,5,5,,3,4,,
2h[16:3]/5,,6,6,2,8,{24}2,3,4,{16}6/5-1[8:1],,,7,7,,,,36,,
2,4,3,,
6,5,7,,
3,4,,7,
5,6,5,,
3,4,25,,
6,5,7h[8:1],,
3,4,2h[8:1],,
1,2,
8,6,7,7,3,5,4,4,1,2,8,8,4,6,5,5,8,3,1,1,2,4,3,3,7w3[8:1],,
,,,,,,
{16}
5<7[16:3]/1,,,,1,,,,1,,7,7,1,,7,,8<6[16:3]/2,,,,2,,,,2,,6,6,2,,6,,
5<8[16:4]/3,,,,3,,,,3,,8,8,3,,8,,8-5[16:2]/4,,,,4h[8:1],,,,4,4,3,,5,5,6,,
45,,3-8[8:1],4,3,,4,,5,,6-1[8:1],5,6,,5,,
4,,2<7[8:1],4,2,,4,,5,,6<1[8:1],5,6,,2,3,
4-8[8:1],,5,5,,6,6,,7-3[8:1],,8,8,,1,1,,
2>5[8:1],,6,6,,7,7,,8<5[8:1],,3,3,,2,2,,
1h[8:1],,,1h[8:1]/5h[8:1],,,2h[8:1]/4h[8:1],,,6h[8:1]/8h[8:1],,,4h[16:1]/5h[16:1],,45,,,
2,4,3,7,5,6,1,3,2,8,6,
7/5,,2/4,,
1bV35[8:1]/5b,,5bV71[16:3],5b-1[16:2],,6b,,,,,
,,5qq1[8:5]/1,,37,,6,,7,7,,8,,7,,6,6,,5,,
62,73,
8bV64[8:1]/4b,,4bV28[16:3],4b-8[8:1],,3b,,,,,
,,7/4pp7[8:4],,65,,3,,2,2,,1,,2,,2,4,3,5,,6/5,,
7b-4[8:1]/4b,,4bV61[16:3],4b-1[8:1],,3b,,,,,
,,2/5qq2[16:8],,34,,6,,7,7-5[8:1],,8,,7V15[16:4],,,
4,,3,,2,,1h[8:3],,7,7,,,6h[8:1],,2h[8:1],,5h[8:1],,3h[8:1],,5h[8:1],,
3,5,1,5,7,5,1,5,3-5[8:1],7,3,1,3b,,,,
8h[8:4],,3,,4,,6,,4h[8:4],,8,,2,,8,,7h[8:3],,4,,2,,3,7,3h[8:4],,1,,8,,7,,
6v5[8:1],,4,,3,,2,,1>4[8:1],,6,,7,,{24}8,7,6,
{16}5/1v6[16:3],,,2,,,3,,
4w8[8:1],,,,4b,,,,
2-6[8:1]/5,,34,,7,7,,8h[16:2],,5,6,1h[8:1],,4,3,8,
8-4[8:1],,56,,2,2,,1h[16:2],,4,3,7h[8:1],,5,6,2-6[8:1],
1,3,8,2>5[8:1],,4,4,2<7[8:1],,8,8,2,,
5,6,7,3,4,1,7,5,6,2,8,
{24}3,4,3,6,5,6,{16}7b/4b,,,,
{16}
7V16[16:3]/3,,18,,4,4,,2h[16:2],,4,2,6h[8:1],,8,6,4,
4V25[16:3],,12,,5,5,,8h[16:2],,6,8,4h[8:1],,2,4,8-4[8:1],
1,7,2,8>3[8:1],,2,2,8<5[8:1],,6,6,8,,
3,2,1,6,5,8,2,4,3,7,1,
{24}6,5,6,4,5,4,7,5,7,3,5,3,
{4}6bpp2[4:3]/2bpp6[4:3],,,,,,
{4}4/5v6[4:2],4,4,4,5/4v2[4:2],5,5,5,4/5v8[4:2],4,4,4,5/4-1[4:2],5,5,5,
{8}56,57,34,42,56,83,34,16,57,12,34,78,45,82,65,13,
{16}6,5,8,1,4,3,6,8,4,3,7,1,5,3,7,4,
{32}8,7,6,5,4,3,2,1,8,7,6,5,4,3,2,1,
{32}84,5,6,7,8,1,2,3,4,5,6,7,8,1,2,3,
{4}4p6[4:1]/8p2[4:1],,,
{16}34,,61,,4b/3bV15[16:3],,2b,8bV62[16:3],,7b,,8b,,,
{24},,,{16}4/8-4[8:1],,73,,8V62[16:3],,3,3,,1,,3h[16:5],,8,8,,7,,
37,26,1b/5bV73[16:3],,6b,2bV84[16:3],,1b,,2b,,,
,,1-5[8:1]/5,,26,,1V37[16:3],,6,6,,8,,6,,6,4,5,34,,65,,
8b/3bV15[16:3],,2b,6bV82[16:3],,7b,,6b,,,
{24},,,{16}4v1[8:1]/6,,28,,4V28[16:4],,7,7,,6,,5,,,
51,,26,,37,,4/8-4[8:1],,2,2,,,3h[8:1],,7h[8:1],,2h[8:1],,6h[8:1],,1h[8:1],,
7,1,5,1,3,1,5,1,7-5[8:1],3,7,5,7b,,,,
1h[8:1],,7,,5/1h[8:2],,3,,
5h[8:1],,1,,7/5h[8:2],,1,,
3h[8:1],,5,,7/3h[8:1],,6,3,
6h[8:1],,8,,1/6h[8:2],,2,,
3h[8:1],,8,,3h[8:2]/7,,6,,
5h[8:1],,4,,35,,{24}35,26,17,
{16}8v3[8:1],,,7,,,6,,
5-2[8:1]*<8[8:1],,,,5-1[8:1],,,,5b,,
{16}3,3,82,,{24}6,5,6,{16}5,,3,4,25,,{24}7,8,7,{16}8,,
{16}2,1,38,,{24}4,5,4,{16}3-7[8:1]/5,,8/1,,3/5,,{24},,,
{16}6/8,,2,4,3,3,{24}4,5,6,{16}7h[8:2],,{24}3,2,1,{16}8h[8:1],,{24}4h[8:1],,,{16}7,3,8,4,1,5,2,6,
{32}7-2[32:3]/3-6[32:3],26,51,84,{16},,3b/7b,,
{16},,73,,6,5,4/7h[8:2],,{24}8,1,2,{16}3,,3,4,5/2h[8:2],,{24}1,8,7,{16}6,,
6,5,7h[24:5]/4,,{24}3,2,1,{16}7-3[8:1]/8-4[8:1],,2/5,,7/8,,
{24},,,5h[8:1]/2,,,2,3,4,5h[8:1]/8,,,
8,7,6,5-1[8:1]/2,,,2/5,36,47,{16}58,,,,
2,4,3,5,4,6,5,7,{32}1,8,1,8,1,8,1,8,1,8,1,8,1,8,1,8,
{4}1-5[8:7],,,,,,,,,,,,,,,,,,,E
