&title=【撸】Latent Kingdom
&artist=Laur vs 大国奏音
&first=0
&des=FANdoraxxx
&des_1=FANdoraxxx
&lv_1=1
&lv_2=1
&lv_3=8
&lv_4=12+
&lv_5=14+
&inote_1=(201){4}3<4>3<4>3<4>3<4>3<4>3<4>3<4>3<4>3<4>3<4>3<4>3<4>3<4>3<4>3<4>3<4>3<4>3<4>3<4>3<4>3<4>3<4>3<4>3<4>3<4>3<4>3<4>3<4>3<4>3<4>3<4>3<4>3<4>3<4>3<4>3<4>3<4>3<4>3<4>3<4>3<4>3<4>3<4>3<4>3<4>3<4>3<4>3<4>3<4>3<4>3<4>3<4>3<4>3<4>3<4>3<4>3<4>3<4>3<4>3<4>3<4>3<4>3<4>3<4>3<4>3<4>3<4>3<4>3<4>3<4>3<4>3<4>3<4>3<4>3<4>3<4>3<4>3<4>3<4>3<4>3<4>3<4>3<4>3<4>3<4>3<4>3<4>3<4>3<4>3<4>3<4>3<4>3<4>3<4>3<4>3<4>3<4>3<4>3<4>3<4>3<4>3<4>3<4>3<4>3<4>3<4>3<4>3<4>3<4>3<4>3<4>3<4>3<4>3<4>3<4>3<4>3<4>3<4>3<4>3<4>3<4>3<4>3<4>3<4>3<4>3<4>3<4>3<4>3<4>3<4>3<4>3<4>3<4>3<4>3<4>3<4>3<4>3<4>3<4>3<4>3<4>3<4>3<4>3<4>3<4>3<4>3<4>3<4>3<4>3<4>3<4>3<4>3<4>3<4>3<4>3<4>3<4>3<4>3<4>3<4>3<4>3<4>3<4>3<4>3<4>3<4>3<4>3<4>3<4>3<4>3<4>3<4>3<4>3<4>3<4>3<4>3<4>3<4>3<4>3<4>3<4>3<4>3<4>3<4>3<4>3<4>3<4>3<4>3<4>3<4>3<4>3<4>3<4>3<4>3<4>3<4>3<4>3<4>3<4>3<4>3<4>3<4>3<4>3<4>3<4>3<4[0##170.4478],,,,,,,,{2}3,
5h[4:1],
{8}5,,,3h[4:1],,5h[8:3],{4},,{16},,{128}6,
6,6,6,6,6,6,6,{16}6,,,,,{4}3,
2h[4:1],3,{16}3/4,,,4/5,,,,,{8}5/6,
{4},{128}5,6,5,6,5,6,5,6,5,6,5,6,5,6,5,6,5,6,{16},,,{64},,,{4}4/5,
{8}3/5,{4},{128}4,3,4,3,4,3,4,3,4,3,4,3,4,3,4,3,{4}4,4/5,
{8}4/6,{64},,,,,,,,,,,,,,,,6,6,6,6,{16}6,,,,,{4}3,
{2}2h[2:1],{8}1,1,2,8,
3/7,4,6,2,{4}4,3/5,
{8}6,6,4,5/3h[4:1],,4h[4:1],,3,
3,5,2,6,1,4,3,5,
{4}4/6h[4:1],5,7/8,1/6,
4pp1[2:1]/6qq1[2:1],,,8,
1p5[2:1]*q5[2:1],,,1,
{2}4pp5q1[2.3881##0.0498]/6qq5p1[2.3881##0.0498]`5?-1-5-1-5-1-5-1-5-1[0.597##1.791],{16}4,3,2/C,1,1/C,2,3/C,4,
1/C,2,3/C,4,6/C,7,8/C,1,7/C,8,1/C,2,5/C,4,3/C,2,
{1}4b/1h[1:2]/C,
{8},,,,,,,,6,
6-2-6[8:1],,4,{4}4h[4:1],{8}1,1-5pp4[8:1]/1-5qq6[8:1],
,3,{4}3,{2}6$/2$/1?-6[8:1]/5?-2[8:1],
{8}3,3$/7?-3[8:1],,5,{4}5h[4:1],{8}8,8-4[8:1],
,6,{4}6,3$/7$/4?p8[8:1]*q8[8:1],4?-8[0##0.1493],
2/6,{8}1<1[8:1],5,{4}1/6,{8}8-3-8-5-8-4-8[8:1],3,
{4}8/2,{8}5$/1$/8?-5[8:1]/4?-1[8:1],1/5,{4}1/5,{8}7-2[8:1]/3-6[8:1],7/3,
{4}3q5[4:5]/7bq1p7q1p7q1p7q1b[4:5],2?>3>2>3>2>3>2>3>2>3>2>3>2>3>2>3>2>3>2>3[0##1.4925],{1},{4},{16}4,
5,{8}4,
{4}6$b/2$/1?-6b[8:1]/5?v2[8:1],{48}2/6,,,,,,,,,,,4b/8b/7b/6b/5b/3b/2b/1b,4b/8b/7b/6b/5b/3b/2b/1b,4b/8b/7b/6b/5b/3b/2b/1b,4b/8b/7b/6b/5b/3b/2b/1b,4b/8b/7b/6b/5b/3b/2b/1b,4b/8b/7b/6b/5b/3b/2b/1b,4b/8b/7b/6b/5b/3b/2b/1b,4b/8b/7b/6b/5b/3b/2b/1b,4b/8b/7b/6b/5b/3b/2b/1b,,,,,{8}1/7,2/6,
{32}5/3h[16:1],,,3,2/3h[16:1],,,3,3h[16:1],,,3,2/3h[16:1],,,3,3h[16:1],,,3,5/3h[16:1],,,3,3h[16:1],,,3,{8}2/3h[16:1],
{4}7v4[8:1]/3b-8b[8:1],7/3,1b/5,{8}2b/8,3/7b,
{64}4b/6/6,6/6,6/6,6/6,6/6,6/6,6/6,6/6,6/6,6/6,6/6,6/6,6/6,6/6,6/6,6/6,{8}8b/6/6,1b/5b,4-8[8:1],2-5[8:1],4,2,
{4}8$x/7?pp4[8:1],8$b/1?qq4[8:1],8b,{8}5b/6b,4b/7b,
{4}8bh[8:1]/3bh[8:1],{16}1b/6b,6b/1b,{8}1b/6b,{64}7b,8b,7b,8b,7b,8b,7b,8b,7b,8b,7b,8b,{16}7b,6b-3b[8:1],{64}5b,6b,5b,6b,5b,6b,5b,6b,5b,6b,5b,6b,
{4}5b,{8}2/8,{16}3,4,{8}2,{16}6/2,5,{8}7q3q7[8:1],8,
{4}7/1>5>3<5>3[8:1],{8}1/5bw1b[0.8955##0.0187]*w1b[0.4478##0.1493]*w1b[0.4664##0.1493]*w1b[0.4851##0.1493]*w1b[0.5037##0.1493]*w1b[0.5224##0.1493]*w1b[0.541##0.1493]*w1b[0.5597##0.1493]*w1b[0.5784##0.1493]*w1b[0.597##0.1493]*w1b[0.6157##0.1493]*w1b[0.6343##0.1493]*w1b[0.653##0.1493]*w1b[0.6716##0.1493]*w1b[0.6903##0.1493]*w1b[0.709##0.1493]*w1b[0.7276##0.1493]*w1b[0.7463##0.1493]*w1b[0.4571##0.1493]*w1b[0.4851##0.1399]*w1b[0.4851##0.1493]*w1b[0.4851##0.1959]*w1b[0.5317##0.1679]*w1b[0.625##0.0933]/5bw1b[0.8955##0.0187]*w1b[0.4478##0.1493]*w1b[0.4664##0.1493]*w1b[0.4851##0.1493]*w1b[0.5037##0.1493]*w1b[0.5224##0.1493]*w1b[0.541##0.1493]*w1b[0.5597##0.1493]*w1b[0.5784##0.1493]*w1b[0.597##0.1493]*w1b[0.6157##0.1493]*w1b[0.6343##0.1493]*w1b[0.653##0.1493]*w1b[0.6716##0.1493]*w1b[0.6903##0.1493]*w1b[0.709##0.1493]*w1b[0.7276##0.1493]*w1b[0.7463##0.1493]*w1b[0.4571##0.1493]*w1b[0.4851##0.1399]*w1b[0.4851##0.1493]*w1b[0.4851##0.1959]*w1b[0.5317##0.1679]*w1b[0.625##0.0933]/5bw1b[0.8955##0.0187]*w1b[0.4478##0.1493]*w1b[0.4664##0.1493]*w1b[0.4851##0.1493]*w1b[0.5037##0.1493]*w1b[0.5224##0.1493]*w1b[0.541##0.1493]*w1b[0.5597##0.1493]*w1b[0.5784##0.1493]*w1b[0.597##0.1493]*w1b[0.6157##0.1493]*w1b[0.6343##0.1493]*w1b[0.653##0.1493]*w1b[0.6716##0.1493]*w1b[0.6903##0.1493]*w1b[0.709##0.1493]*w1b[0.7276##0.1493]*w1b[0.7463##0.1493]*w1b[0.4571##0.1493]*w1b[0.4851##0.1399]*w1b[0.4851##0.1493]*w1b[0.4851##0.1959]*w1b[0.5317##0.1679]*w1b[0.625##0.0933]/5bw1b[0.8955##0.0187]*w1b[0.4478##0.1493]*w1b[0.4664##0.1493]*w1b[0.4851##0.1493]*w1b[0.5037##0.1493]*w1b[0.5224##0.1493]*w1b[0.541##0.1493]*w1b[0.5597##0.1493]*w1b[0.5784##0.1493]*w1b[0.597##0.1493]*w1b[0.6157##0.1493]*w1b[0.6343##0.1493]*w1b[0.653##0.1493]*w1b[0.6716##0.1493]*w1b[0.6903##0.1493]*w1b[0.709##0.1493]*w1b[0.7276##0.1493]*w1b[0.7463##0.1493]*w1b[0.4571##0.1493]*w1b[0.4851##0.1399]*w1b[0.4851##0.1493]*w1b[0.4851##0.1959]*w1b[0.5317##0.1679]*w1b[0.625##0.0933]/5bw1b[0.8955##0.0187]*w1b[0.4478##0.1493]*w1b[0.4664##0.1493]*w1b[0.4851##0.1493]*w1b[0.5037##0.1493]*w1b[0.5224##0.1493]*w1b[0.541##0.1493]*w1b[0.5597##0.1493]*w1b[0.5784##0.1493]*w1b[0.597##0.1493]*w1b[0.6157##0.1493]*w1b[0.6343##0.1493]*w1b[0.653##0.1493]*w1b[0.6716##0.1493]*w1b[0.6903##0.1493]*w1b[0.709##0.1493]*w1b[0.7276##0.1493]*w1b[0.7463##0.1493]*w1b[0.4571##0.1493]*w1b[0.4851##0.1399]*w1b[0.4851##0.1493]*w1b[0.4851##0.1959]*w1b[0.5317##0.1679]*w1b[0.625##0.0933]/5bw1b[0.8955##0.0187]*w1b[0.4478##0.1493]*w1b[0.4664##0.1493]*w1b[0.4851##0.1493]*w1b[0.5037##0.1493]*w1b[0.5224##0.1493]*w1b[0.541##0.1493]*w1b[0.5597##0.1493]*w1b[0.5784##0.1493]*w1b[0.597##0.1493]*w1b[0.6157##0.1493]*w1b[0.6343##0.1493]*w1b[0.653##0.1493]*w1b[0.6716##0.1493]*w1b[0.6903##0.1493]*w1b[0.709##0.1493]*w1b[0.7276##0.1493]*w1b[0.7463##0.1493]*w1b[0.4571##0.1493]*w1b[0.4851##0.1399]*w1b[0.4851##0.1493]*w1b[0.4851##0.1959]*w1b[0.5317##0.1679]*w1b[0.625##0.0933]/5bw1b[0.8955##0.0187]*w1b[0.4478##0.1493]*w1b[0.4664##0.1493]*w1b[0.4851##0.1493]*w1b[0.5037##0.1493]*w1b[0.5224##0.1493]*w1b[0.541##0.1493]*w1b[0.5597##0.1493]*w1b[0.5784##0.1493]*w1b[0.597##0.1493]*w1b[0.6157##0.1493]*w1b[0.6343##0.1493]*w1b[0.653##0.1493]*w1b[0.6716##0.1493]*w1b[0.6903##0.1493]*w1b[0.709##0.1493]*w1b[0.7276##0.1493]*w1b[0.7463##0.1493]*w1b[0.4571##0.1493]*w1b[0.4851##0.1399]*w1b[0.4851##0.1493]*w1b[0.4851##0.1959]*w1b[0.5317##0.1679]*w1b[0.625##0.0933]/5bw1b[0.8955##0.0187]*w1b[0.4478##0.1493]*w1b[0.4664##0.1493]*w1b[0.4851##0.1493]*w1b[0.5037##0.1493]*w1b[0.5224##0.1493]*w1b[0.541##0.1493]*w1b[0.5597##0.1493]*w1b[0.5784##0.1493]*w1b[0.597##0.1493]*w1b[0.6157##0.1493]*w1b[0.6343##0.1493]*w1b[0.653##0.1493]*w1b[0.6716##0.1493]*w1b[0.6903##0.1493]*w1b[0.709##0.1493]*w1b[0.7276##0.1493]*w1b[0.7463##0.1493]*w1b[0.4571##0.1493]*w1b[0.4851##0.1399]*w1b[0.4851##0.1493]*w1b[0.4851##0.1959]*w1b[0.5317##0.1679]*w1b[0.625##0.0933]/5bw1b[0.8955##0.0187]*w1b[0.4478##0.1493]*w1b[0.4664##0.1493]*w1b[0.4851##0.1493]*w1b[0.5037##0.1493]*w1b[0.5224##0.1493]*w1b[0.541##0.1493]*w1b[0.5597##0.1493]*w1b[0.5784##0.1493]*w1b[0.597##0.1493]*w1b[0.6157##0.1493]*w1b[0.6343##0.1493]*w1b[0.653##0.1493]*w1b[0.6716##0.1493]*w1b[0.6903##0.1493]*w1b[0.709##0.1493]*w1b[0.7276##0.1493]*w1b[0.7463##0.1493]*w1b[0.4571##0.1493]*w1b[0.4851##0.1399]*w1b[0.4851##0.1493]*w1b[0.4851##0.1959]*w1b[0.5317##0.1679]*w1b[0.625##0.0933]/5bw1b[0.8955##0.0187]*w1b[0.4478##0.1493]*w1b[0.4664##0.1493]*w1b[0.4851##0.1493]*w1b[0.5037##0.1493]*w1b[0.5224##0.1493]*w1b[0.541##0.1493]*w1b[0.5597##0.1493]*w1b[0.5784##0.1493]*w1b[0.597##0.1493]*w1b[0.6157##0.1493]*w1b[0.6343##0.1493]*w1b[0.653##0.1493]*w1b[0.6716##0.1493]*w1b[0.6903##0.1493]*w1b[0.709##0.1493]*w1b[0.7276##0.1493]*w1b[0.7463##0.1493]*w1b[0.4571##0.1493]*w1b[0.4851##0.1399]*w1b[0.4851##0.1493]*w1b[0.4851##0.1959]*w1b[0.5317##0.1679]*w1b[0.625##0.0933]/5bw1b[0.8955##0.0187]*w1b[0.4478##0.1493]*w1b[0.4664##0.1493]*w1b[0.4851##0.1493]*w1b[0.5037##0.1493]*w1b[0.5224##0.1493]*w1b[0.541##0.1493]*w1b[0.5597##0.1493]*w1b[0.5784##0.1493]*w1b[0.597##0.1493]*w1b[0.6157##0.1493]*w1b[0.6343##0.1493]*w1b[0.653##0.1493]*w1b[0.6716##0.1493]*w1b[0.6903##0.1493]*w1b[0.709##0.1493]*w1b[0.7276##0.1493]*w1b[0.7463##0.1493]*w1b[0.4571##0.1493]*w1b[0.4851##0.1399]*w1b[0.4851##0.1493]*w1b[0.4851##0.1959]*w1b[0.5317##0.1679]*w1b[0.625##0.0933]/5bw1b[0.8955##0.0187]*w1b[0.4478##0.1493]*w1b[0.4664##0.1493]*w1b[0.4851##0.1493]*w1b[0.5037##0.1493]*w1b[0.5224##0.1493]*w1b[0.541##0.1493]*w1b[0.5597##0.1493]*w1b[0.5784##0.1493]*w1b[0.597##0.1493]*w1b[0.6157##0.1493]*w1b[0.6343##0.1493]*w1b[0.653##0.1493]*w1b[0.6716##0.1493]*w1b[0.6903##0.1493]*w1b[0.709##0.1493]*w1b[0.7276##0.1493]*w1b[0.7463##0.1493]*w1b[0.4571##0.1493]*w1b[0.4851##0.1399]*w1b[0.4851##0.1493]*w1b[0.4851##0.1959]*w1b[0.5317##0.1679]*w1b[0.625##0.0933]/5bw1b[0.8955##0.0187]*w1b[0.4478##0.1493]*w1b[0.4664##0.1493]*w1b[0.4851##0.1493]*w1b[0.5037##0.1493]*w1b[0.5224##0.1493]*w1b[0.541##0.1493]*w1b[0.5597##0.1493]*w1b[0.5784##0.1493]*w1b[0.597##0.1493]*w1b[0.6157##0.1493]*w1b[0.6343##0.1493]*w1b[0.653##0.1493]*w1b[0.6716##0.1493]*w1b[0.6903##0.1493]*w1b[0.709##0.1493]*w1b[0.7276##0.1493]*w1b[0.7463##0.1493]*w1b[0.4571##0.1493]*w1b[0.4851##0.1399]*w1b[0.4851##0.1493]*w1b[0.4851##0.1959]*w1b[0.5317##0.1679]*w1b[0.625##0.0933]/5bw1b[0.8955##0.0187]*w1b[0.4478##0.1493]*w1b[0.4664##0.1493]*w1b[0.4851##0.1493]*w1b[0.5037##0.1493]*w1b[0.5224##0.1493]*w1b[0.541##0.1493]*w1b[0.5597##0.1493]*w1b[0.5784##0.1493]*w1b[0.597##0.1493]*w1b[0.6157##0.1493]*w1b[0.6343##0.1493]*w1b[0.653##0.1493]*w1b[0.6716##0.1493]*w1b[0.6903##0.1493]*w1b[0.709##0.1493]*w1b[0.7276##0.1493]*w1b[0.7463##0.1493]*w1b[0.4571##0.1493]*w1b[0.4851##0.1399]*w1b[0.4851##0.1493]*w1b[0.4851##0.1959]*w1b[0.5317##0.1679]*w1b[0.625##0.0933]/5bw1b[0.8955##0.0187]*w1b[0.4478##0.1493]*w1b[0.4664##0.1493]*w1b[0.4851##0.1493]*w1b[0.5037##0.1493]*w1b[0.5224##0.1493]*w1b[0.541##0.1493]*w1b[0.5597##0.1493]*w1b[0.5784##0.1493]*w1b[0.597##0.1493]*w1b[0.6157##0.1493]*w1b[0.6343##0.1493]*w1b[0.653##0.1493]*w1b[0.6716##0.1493]*w1b[0.6903##0.1493]*w1b[0.709##0.1493]*w1b[0.7276##0.1493]*w1b[0.7463##0.1493]*w1b[0.4571##0.1493]*w1b[0.4851##0.1399]*w1b[0.4851##0.1493]*w1b[0.4851##0.1959]*w1b[0.5317##0.1679]*w1b[0.625##0.0933]/5bw1b[0.8955##0.0187]*w1b[0.4478##0.1493]*w1b[0.4664##0.1493]*w1b[0.4851##0.1493]*w1b[0.5037##0.1493]*w1b[0.5224##0.1493]*w1b[0.541##0.1493]*w1b[0.5597##0.1493]*w1b[0.5784##0.1493]*w1b[0.597##0.1493]*w1b[0.6157##0.1493]*w1b[0.6343##0.1493]*w1b[0.653##0.1493]*w1b[0.6716##0.1493]*w1b[0.6903##0.1493]*w1b[0.709##0.1493]*w1b[0.7276##0.1493]*w1b[0.7463##0.1493]*w1b[0.4571##0.1493]*w1b[0.4851##0.1399]*w1b[0.4851##0.1493]*w1b[0.4851##0.1959]*w1b[0.5317##0.1679]*w1b[0.625##0.0933]/5bw1b[0.8955##0.0187]*w1b[0.4478##0.1493]*w1b[0.4664##0.1493]*w1b[0.4851##0.1493]*w1b[0.5037##0.1493]*w1b[0.5224##0.1493]*w1b[0.541##0.1493]*w1b[0.5597##0.1493]*w1b[0.5784##0.1493]*w1b[0.597##0.1493]*w1b[0.6157##0.1493]*w1b[0.6343##0.1493]*w1b[0.653##0.1493]*w1b[0.6716##0.1493]*w1b[0.6903##0.1493]*w1b[0.709##0.1493]*w1b[0.7276##0.1493]*w1b[0.7463##0.1493]*w1b[0.4571##0.1493]*w1b[0.4851##0.1399]*w1b[0.4851##0.1493]*w1b[0.4851##0.1959]*w1b[0.5317##0.1679]*w1b[0.625##0.0933]/5bw1b[0.8955##0.0187]*w1b[0.4478##0.1493]*w1b[0.4664##0.1493]*w1b[0.4851##0.1493]*w1b[0.5037##0.1493]*w1b[0.5224##0.1493]*w1b[0.541##0.1493]*w1b[0.5597##0.1493]*w1b[0.5784##0.1493]*w1b[0.597##0.1493]*w1b[0.6157##0.1493]*w1b[0.6343##0.1493]*w1b[0.653##0.1493]*w1b[0.6716##0.1493]*w1b[0.6903##0.1493]*w1b[0.709##0.1493]*w1b[0.7276##0.1493]*w1b[0.7463##0.1493]*w1b[0.4571##0.1493]*w1b[0.4851##0.1399]*w1b[0.4851##0.1493]*w1b[0.4851##0.1959]*w1b[0.5317##0.1679]*w1b[0.625##0.0933]/5bw1b[0.8955##0.0187]*w1b[0.4478##0.1493]*w1b[0.4664##0.1493]*w1b[0.4851##0.1493]*w1b[0.5037##0.1493]*w1b[0.5224##0.1493]*w1b[0.541##0.1493]*w1b[0.5597##0.1493]*w1b[0.5784##0.1493]*w1b[0.597##0.1493]*w1b[0.6157##0.1493]*w1b[0.6343##0.1493]*w1b[0.653##0.1493]*w1b[0.6716##0.1493]*w1b[0.6903##0.1493]*w1b[0.709##0.1493]*w1b[0.7276##0.1493]*w1b[0.7463##0.1493]*w1b[0.4571##0.1493]*w1b[0.4851##0.1399]*w1b[0.4851##0.1493]*w1b[0.4851##0.1959]*w1b[0.5317##0.1679]*w1b[0.625##0.0933]/5bw1b[0.8955##0.0187]*w1b[0.4478##0.1493]*w1b[0.4664##0.1493]*w1b[0.4851##0.1493]*w1b[0.5037##0.1493]*w1b[0.5224##0.1493]*w1b[0.541##0.1493]*w1b[0.5597##0.1493]*w1b[0.5784##0.1493]*w1b[0.597##0.1493]*w1b[0.6157##0.1493]*w1b[0.6343##0.1493]*w1b[0.653##0.1493]*w1b[0.6716##0.1493]*w1b[0.6903##0.1493]*w1b[0.709##0.1493]*w1b[0.7276##0.1493]*w1b[0.7463##0.1493]*w1b[0.4571##0.1493]*w1b[0.4851##0.1399]*w1b[0.4851##0.1493]*w1b[0.4851##0.1959]*w1b[0.5317##0.1679]*w1b[0.625##0.0933]/5bw1b[0.8955##0.0187]*w1b[0.4478##0.1493]*w1b[0.4664##0.1493]*w1b[0.4851##0.1493]*w1b[0.5037##0.1493]*w1b[0.5224##0.1493]*w1b[0.541##0.1493]*w1b[0.5597##0.1493]*w1b[0.5784##0.1493]*w1b[0.597##0.1493]*w1b[0.6157##0.1493]*w1b[0.6343##0.1493]*w1b[0.653##0.1493]*w1b[0.6716##0.1493]*w1b[0.6903##0.1493]*w1b[0.709##0.1493]*w1b[0.7276##0.1493]*w1b[0.7463##0.1493]*w1b[0.4571##0.1493]*w1b[0.4851##0.1399]*w1b[0.4851##0.1493]*w1b[0.4851##0.1959]*w1b[0.5317##0.1679]*w1b[0.625##0.0933]/5bw1b[0.8955##0.0187]*w1b[0.4478##0.1493]*w1b[0.4664##0.1493]*w1b[0.4851##0.1493]*w1b[0.5037##0.1493]*w1b[0.5224##0.1493]*w1b[0.541##0.1493]*w1b[0.5597##0.1493]*w1b[0.5784##0.1493]*w1b[0.597##0.1493]*w1b[0.6157##0.1493]*w1b[0.6343##0.1493]*w1b[0.653##0.1493]*w1b[0.6716##0.1493]*w1b[0.6903##0.1493]*w1b[0.709##0.1493]*w1b[0.7276##0.1493]*w1b[0.7463##0.1493]*w1b[0.4571##0.1493]*w1b[0.4851##0.1399]*w1b[0.4851##0.1493]*w1b[0.4851##0.1959]*w1b[0.5317##0.1679]*w1b[0.625##0.0933]/5bw1b[0.8955##0.0187]*w1b[0.4478##0.1493]*w1b[0.4664##0.1493]*w1b[0.4851##0.1493]*w1b[0.5037##0.1493]*w1b[0.5224##0.1493]*w1b[0.541##0.1493]*w1b[0.5597##0.1493]*w1b[0.5784##0.1493]*w1b[0.597##0.1493]*w1b[0.6157##0.1493]*w1b[0.6343##0.1493]*w1b[0.653##0.1493]*w1b[0.6716##0.1493]*w1b[0.6903##0.1493]*w1b[0.709##0.1493]*w1b[0.7276##0.1493]*w1b[0.7463##0.1493]*w1b[0.4571##0.1493]*w1b[0.4851##0.1399]*w1b[0.4851##0.1493]*w1b[0.4851##0.1959]*w1b[0.5317##0.1679]*w1b[0.625##0.0933]/5bw1b[0.8955##0.0187]*w1b[0.4478##0.1493]*w1b[0.4664##0.1493]*w1b[0.4851##0.1493]*w1b[0.5037##0.1493]*w1b[0.5224##0.1493]*w1b[0.541##0.1493]*w1b[0.5597##0.1493]*w1b[0.5784##0.1493]*w1b[0.597##0.1493]*w1b[0.6157##0.1493]*w1b[0.6343##0.1493]*w1b[0.653##0.1493]*w1b[0.6716##0.1493]*w1b[0.6903##0.1493]*w1b[0.709##0.1493]*w1b[0.7276##0.1493]*w1b[0.7463##0.1493]*w1b[0.4571##0.1493]*w1b[0.4851##0.1399]*w1b[0.4851##0.1493]*w1b[0.4851##0.1959]*w1b[0.5317##0.1679]*w1b[0.625##0.0933]/5bw1b[0.8955##0.0187]*w1b[0.4478##0.1493]*w1b[0.4664##0.1493]*w1b[0.4851##0.1493]*w1b[0.5037##0.1493]*w1b[0.5224##0.1493]*w1b[0.541##0.1493]*w1b[0.5597##0.1493]*w1b[0.5784##0.1493]*w1b[0.597##0.1493]*w1b[0.6157##0.1493]*w1b[0.6343##0.1493]*w1b[0.653##0.1493]*w1b[0.6716##0.1493]*w1b[0.6903##0.1493]*w1b[0.709##0.1493]*w1b[0.7276##0.1493]*w1b[0.7463##0.1493]*w1b[0.4571##0.1493]*w1b[0.4851##0.1399]*w1b[0.4851##0.1493]*w1b[0.4851##0.1959]*w1b[0.5317##0.1679]*w1b[0.625##0.0933]/5bw1b[0.8955##0.0187]*w1b[0.4478##0.1493]*w1b[0.4664##0.1493]*w1b[0.4851##0.1493]*w1b[0.5037##0.1493]*w1b[0.5224##0.1493]*w1b[0.541##0.1493]*w1b[0.5597##0.1493]*w1b[0.5784##0.1493]*w1b[0.597##0.1493]*w1b[0.6157##0.1493]*w1b[0.6343##0.1493]*w1b[0.653##0.1493]*w1b[0.6716##0.1493]*w1b[0.6903##0.1493]*w1b[0.709##0.1493]*w1b[0.7276##0.1493]*w1b[0.7463##0.1493]*w1b[0.4571##0.1493]*w1b[0.4851##0.1399]*w1b[0.4851##0.1493]*w1b[0.4851##0.1959]*w1b[0.5317##0.1679]*w1b[0.625##0.0933]/5bw1b[0.8955##0.0187]*w1b[0.4478##0.1493]*w1b[0.4664##0.1493]*w1b[0.4851##0.1493]*w1b[0.5037##0.1493]*w1b[0.5224##0.1493]*w1b[0.541##0.1493]*w1b[0.5597##0.1493]*w1b[0.5784##0.1493]*w1b[0.597##0.1493]*w1b[0.6157##0.1493]*w1b[0.6343##0.1493]*w1b[0.653##0.1493]*w1b[0.6716##0.1493]*w1b[0.6903##0.1493]*w1b[0.709##0.1493]*w1b[0.7276##0.1493]*w1b[0.7463##0.1493]*w1b[0.4571##0.1493]*w1b[0.4851##0.1399]*w1b[0.4851##0.1493]*w1b[0.4851##0.1959]*w1b[0.5317##0.1679]*w1b[0.625##0.0933]/5bw1b[0.8955##0.0187]*w1b[0.4478##0.1493]*w1b[0.4664##0.1493]*w1b[0.4851##0.1493]*w1b[0.5037##0.1493]*w1b[0.5224##0.1493]*w1b[0.541##0.1493]*w1b[0.5597##0.1493]*w1b[0.5784##0.1493]*w1b[0.597##0.1493]*w1b[0.6157##0.1493]*w1b[0.6343##0.1493]*w1b[0.653##0.1493]*w1b[0.6716##0.1493]*w1b[0.6903##0.1493]*w1b[0.709##0.1493]*w1b[0.7276##0.1493]*w1b[0.7463##0.1493]*w1b[0.4571##0.1493]*w1b[0.4851##0.1399]*w1b[0.4851##0.1493]*w1b[0.4851##0.1959]*w1b[0.5317##0.1679]*w1b[0.625##0.0933]/5bw1b[0.8955##0.0187]*w1b[0.4478##0.1493]*w1b[0.4664##0.1493]*w1b[0.4851##0.1493]*w1b[0.5037##0.1493]*w1b[0.5224##0.1493]*w1b[0.541##0.1493]*w1b[0.5597##0.1493]*w1b[0.5784##0.1493]*w1b[0.597##0.1493]*w1b[0.6157##0.1493]*w1b[0.6343##0.1493]*w1b[0.653##0.1493]*w1b[0.6716##0.1493]*w1b[0.6903##0.1493]*w1b[0.709##0.1493]*w1b[0.7276##0.1493]*w1b[0.7463##0.1493]*w1b[0.4571##0.1493]*w1b[0.4851##0.1399]*w1b[0.4851##0.1493]*w1b[0.4851##0.1959]*w1b[0.5317##0.1679]*w1b[0.625##0.0933]/5bw1b[0.8955##0.0187]*w1b[0.4478##0.1493]*w1b[0.4664##0.1493]*w1b[0.4851##0.1493]*w1b[0.5037##0.1493]*w1b[0.5224##0.1493]*w1b[0.541##0.1493]*w1b[0.5597##0.1493]*w1b[0.5784##0.1493]*w1b[0.597##0.1493]*w1b[0.6157##0.1493]*w1b[0.6343##0.1493]*w1b[0.653##0.1493]*w1b[0.6716##0.1493]*w1b[0.6903##0.1493]*w1b[0.709##0.1493]*w1b[0.7276##0.1493]*w1b[0.7463##0.1493]*w1b[0.4571##0.1493]*w1b[0.4851##0.1399]*w1b[0.4851##0.1493]*w1b[0.4851##0.1959]*w1b[0.5317##0.1679]*w1b[0.625##0.0933]/5bw1b[0.8955##0.0187]*w1b[0.4478##0.1493]*w1b[0.4664##0.1493]*w1b[0.4851##0.1493]*w1b[0.5037##0.1493]*w1b[0.5224##0.1493]*w1b[0.541##0.1493]*w1b[0.5597##0.1493]*w1b[0.5784##0.1493]*w1b[0.597##0.1493]*w1b[0.6157##0.1493]*w1b[0.6343##0.1493]*w1b[0.653##0.1493]*w1b[0.6716##0.1493]*w1b[0.6903##0.1493]*w1b[0.709##0.1493]*w1b[0.7276##0.1493]*w1b[0.7463##0.1493]*w1b[0.4571##0.1493]*w1b[0.4851##0.1399]*w1b[0.4851##0.1493]*w1b[0.4851##0.1959]*w1b[0.5317##0.1679]*w1b[0.625##0.0933]/5bw1b[0.8955##0.0187]*w1b[0.4478##0.1493]*w1b[0.4664##0.1493]*w1b[0.4851##0.1493]*w1b[0.5037##0.1493]*w1b[0.5224##0.1493]*w1b[0.541##0.1493]*w1b[0.5597##0.1493]*w1b[0.5784##0.1493]*w1b[0.597##0.1493]*w1b[0.6157##0.1493]*w1b[0.6343##0.1493]*w1b[0.653##0.1493]*w1b[0.6716##0.1493]*w1b[0.6903##0.1493]*w1b[0.709##0.1493]*w1b[0.7276##0.1493]*w1b[0.7463##0.1493]*w1b[0.4571##0.1493]*w1b[0.4851##0.1399]*w1b[0.4851##0.1493]*w1b[0.4851##0.1959]*w1b[0.5317##0.1679]*w1b[0.625##0.0933],Cf/B1/B5/A1/A5,{64},,,,,,,,Cf/B1/B5/A1/A5,Cf/B1/B5/A1/A5,Cf/B1/B5/A1/A5,Cf/B1/B5/A1/A5,Cf/B1/B5/A1/A5,Cf/B1/B5/A1/A5,Cf/B1/B5/A1/A5,Cf/B1/B5/A1/A5,,,,,,,,,,,,,,,,,{8}8/2h[8:1]/6?w2b[0.0249##0.0498]/3?w7b[0.0249##0.0498]/8?-4-8-4-8-4-8-4-8-4-8-4-8-4-8-4-8-4-8-4-8-4[0.0249##3.7065],
8,3/7,4/6,3/5h[8:1],3,2/4,1/5,
6/8h[8:1],6,1/5,2/6,3/7h[8:1],3,4/6,3/5,
4/2h[8:1],4,3/5,4/6,3/7,{16}2/7,1/8,{8}3/6,{16}6/3,5/4,
{8}7/2,1/8,2z6[8:3]*-4-2-4-2-4-2-4-2-4-2-4-2[8:3]/7s3[0##1.3433]/7?-5-7-5-7-5-7-5-7-5-7-5[8:3],3/6,,,,,4/5-8[8:1],
,,8b,1/7h[8:1],1,{16}2/6,2/6,3/5,3/5,
6/4h[8:1],6/4h[8:1],6,6,3/7,3/7,{8}2/6,1/5h[8:1],1,6/8,1/7,
2/8,3/7,2/6,3/5,{4}4h[8:1]/6h[8:1],{128}7/5p2[1.194##0.0187],7/5,7/5,7/5,7/5,7/5,7/5,7/5,{16}5/7,,,{2}Cf,
{4}8w4b[64:1]/4?w8b[64:1],8,
6b/2bz6pp2-6qq2b[8:1],5$/6?qq1[8:1]`4?pp1[8:1],3,{32}8,7,7,8,6,1,5,2,
4/2pp5[8:1],3,,,{8}2,6-2[0.1493##0.1493],6,{4}1,5/7p4q7v4q7p4q7p4q7b[8:3],
2-5[8:1],Cf,2/6,{32}4,3,2,1,1,2,3,4,
{8}8/7-4[8:1],7,3-8-3-8[4:1]/6?v3v6v3[4:1],3,{4},{16},{64},,{128},Cf,5b`Cf,4b`Cf,3b`Cf,2b`Cf,1b`Cf,8b`Cf,7b/8b`Cf,6b/7b`Cf,5b/6b`Cf,4b/5b`Cf,3b/4b`Cf,2b/3b`Cf,1b/2b`Cf,1b`Cf,{32}Cf,
{4}4bp7[8:1]/5bq2[8:1],5/4-8b[8:1],4/5/5?qq8[0##0.1493]`3?pp8[0##0.1493],{16}1/6,2,3,4,
{8}5/3-5[8:1],3-6[8:1],3-7[8:1],3-8[8:1],3-1[8:1],3w7b[8:1],1,1,
{4}2-5-2[8:1]/6-1-6[8:1],2/6,7$/3$/2?-6[8:1]/6?-2[8:1],3/7,
{8}1/5,2/6,7<6<7[8:1]/3>2>3[8:1],4/8,{2}3b/7b,
{4}3b/6b-3[32:0],{8}1/6/6-4<5-1-3-7>8-5<6-2V48-2q3pp7<6-8-5-1<8V25-1>2[0##0.1493],{32}2,2,8/2,8,2/8,2,{16}2,{32}7,7,1/7,1,7/1,7,{16}7,{32}3,3,4/3,4,
2/4,2,{16}2,{32}6,6,5/6,5,7/5,7,{16}7,{32}2,2,1/2,1,3/1,3,8/3,8,4/8,4,7/4,7,7/1h[8:1],1h[8:1],{16}1h[8:1],{32}5,5,3/5,3,
{4}3/8bp4[8:1]`8?q4[8:1]`4?-8-4b[8:1],{8}1/8,{16}2,6,{8}2,{16}8/2,4/6,{8}8/2,{16}3/8,4/4,
{8}2/5/8,{16}3,4/7/4,{8}2/5,1/8,{64}1,1,2,2/4,3,3/3,4,4/2,5,5/1,6,6/8,7,7/7,8,8/6,1,1/5,2,2/4,3,3/3,4b,4b/2b,5b,5b/1b,6b,6b/8b,7b,7b/7b,8b,8b/6b,
Cf/1bq5q1b[3.8806##0.8955],5b,{4},{16},,,{32},{2}C,
{4}C,C,{16}C,,,C,,,{8}C,
1/7h[1:1]/C,C,C,C,{64}1/C,2/1,3/1/2,4/2/3/1,5/3/4/2,6/4/5/3/1,7/5/6/4/2,8/6/7/5/3/1,1/7/8/6/4/2,2/8/7/5/3,3/1/8/6/4,4/2/7/5,5b/3/8/6,6b/4/7,7b/5b/8,8b/1b/6b,1b/2b/7b,{192}3b/8b/1b,2b,,{96}4b/1b/2b,{192}3b,5b/3b,{96}2b,4b/6b/4b,{192}3b,7/5b,{96}5,8/4b/6b,{192}6,7,{96}5,8,6,{48}8,1,2,3,4,
{1}5b-1[4:3],
5bh[1:1],
{4}1>4<7[2:1],4<7b[4:1]/4?pp1[4:1]/6?qq1[4:1],7>2b[4:1],2/1>4<7[2:1],
{8}4b-8-6-2-8[4:1],4,3/7>2b[4:1],2,1bx>2-6>5-1[4:1],1,5/1>4<7[2:1],6,
{4}7v4V68b[4:1]/2v5V31b[4:1],2>5[4:1]/7>2b[4:1],5<8[4:1],8/1>4<7[2:1],
{8}2$/4<7b[4:1]/4?-2[8:1],1$/5?-1[8:1],2/7>2b[4:1],5,8$/4?-8[8:1],7-5[8:1],8/1>4<7[2:1],7,
1$/4<7b[4:1]/2?qq5[8:1],1$`8?pp5[8:1],{4}1-5b[8:1]/7>2b[4:1],,7/1-3q1[0.597##0.1493],
{8}B6,B7,B6,B6,8,8,1>2>3<4<5<6<7>8>1>2>3<4<6<8>1>2>3<6[8:3],7,
,8?>8b[0##0.2985],{64},,,,,,,,,,,,,,,,8,8,8,8,8,8,8,8,8,8,,,,,,,8,8,8,8,8,8,8,8,8,8,,,,,,,{4}4/8>6[2:1],
4<7[4:1]*pp1[2:1],6qq1[4:1],{32}3<1[2:1],,,,,,,5?-1b[0##0.0373],
{2}E5f/B4/B5/4?-1-4-1-4[0##0.597],{4}3,2,
8/1<3[2:1],1>2<1q5<6[2:1],{16}5>4<5q1<8[4:1],{32},,,,,,,,,,,,B5,C/1?-5b[0##0.0373],
{2}B1,{4}6/7/2/3,7/6/3/2,
{8}7-4[4.7761##0.1493],2-6[4.6269##0.1493],7,2,1-5[4.1791##0.1493],5-1[4.0299##0.1493],1,5,
7v4[3.5821##0.1493],3-7[3.4328##0.1493],7,3,{4}8b,{16}2,3/7,{8}4/6,
1b,1b-5-1b[4:1],,7b,{4}7b-3-7b[4:1],{8}2b,2bh[4:1],
,8,8,8,{64}2,3,4/8,7,6/2,3,4/8,7,6/2,3,4/8,7,6/2,3,4/8,7,{16}6/1-5[8:1],2,3/7,6,
{32}5/1b>2>3>2>3>2>3>2>3>2>6<7<6<7<6<7<6<7[4:13],Cf,{1},{4},{16},,,{2}E5f,
{4},E5f,,,,,{2}E5f,
{8}8/1>2>3>2>3>2>3>2>3>2>3>2>3>2>3>2>3>2>3<6<7<6<7<6<7<6<7<6<7<6<7<6<7<6<7<6<7<6<8b[4:13],,,E5f,,E5f,,E5f,
,,,,,,,,{4}E5f,
E5f,{2}E5f,
{8},,,,,,,,1-4-1-4-1-4-1-4-1-4-1-4-1-4-1-4-1-4-1-4-1[4:15],
4/8-5-8-5-8-5-8-5-8-5-8-5-8-5-8-5-8-5-8-5-8[4:15],4/6-1-6-1-6-1-6-1-6-1-6-1-6-1-6-1-6-1-6-1-6[4:15],5/2-5-2-5-2-5-2-5-2-5-2-5-2-5-2-5-2-5-2-5-2[4:15],2x/4x,3,3/7,6,
4x/6x,4,3/7,6,{16}2/5,2/5,3,3,3/7,3/7,6,6,
3x/5x,3x/5x,3,3,4/7,4/7,6,6,2/5,2/5,3,3,3/7,3/7,6,6,
2x/5x,2x/5x,2,2,3/4,3/4,5,5,4/6,4/6,{8}4/6,3/5,3/5,
{2}1b,{16}2/4-8-4[0##1.0448],5,2,5,3,6,3,6,
4,7,4,7,5/4?-8-4-8-4-8[0##1.0448],6,5,6,4,5,4,5,3,4,3,4,
2/4?-8-4-8-4-8-4-8[0##1.194]/4?-8-4-8-4-8-4-8[0##1.194],1,3,8,4,7,5,6,4,5,4,5,3,6,2,7,
{24}1/5b-1-5-1-5-1-5-1-5-1-5-1-5-1-5-1-5-1-5-1-5-1-5-1-5-1-5-1-5-1-5-1-5-1-5-1-5-1b[0##1.194]/5b-1-5-1-5-1-5-1-5-1-5-1-5-1-5-1-5-1-5-1-5-1-5-1-5-1-5-1-5-1-5-1-5-1-5-1-5-1b[0##1.194]/5b-1-5-1-5-1-5-1-5-1-5-1-5-1-5-1-5-1-5-1-5-1-5-1-5-1-5-1-5-1-5-1-5-1-5-1-5-1b[0##1.194]/5b-1-5-1-5-1-5-1-5-1-5-1-5-1-5-1-5-1-5-1-5-1-5-1-5-1-5-1-5-1-5-1-5-1-5-1-5-1b[0##1.194]/5b-1-5-1-5-1-5-1-5-1-5-1-5-1-5-1-5-1-5-1-5-1-5-1-5-1-5-1-5-1-5-1-5-1-5-1-5-1b[0##1.194]/5b-1-5-1-5-1-5-1-5-1-5-1-5-1-5-1-5-1-5-1-5-1-5-1-5-1-5-1-5-1-5-1-5-1-5-1-5-1b[0##1.194]/5b-1-5-1-5-1-5-1-5-1-5-1-5-1-5-1-5-1-5-1-5-1-5-1-5-1-5-1-5-1-5-1-5-1-5-1-5-1b[0##1.194]/5b-1-5-1-5-1-5-1-5-1-5-1-5-1-5-1-5-1-5-1-5-1-5-1-5-1-5-1-5-1-5-1-5-1-5-1-5-1b[0##1.194]/5b-1-5-1-5-1-5-1-5-1-5-1-5-1-5-1-5-1-5-1-5-1-5-1-5-1-5-1-5-1-5-1-5-1-5-1-5-1b[0##1.194]/5b-1-5-1-5-1-5-1-5-1-5-1-5-1-5-1-5-1-5-1-5-1-5-1-5-1-5-1-5-1-5-1-5-1-5-1-5-1b[0##1.194]/5b-1-5-1-5-1-5-1-5-1-5-1-5-1-5-1-5-1-5-1-5-1-5-1-5-1-5-1-5-1-5-1-5-1-5-1-5-1b[0##1.194]/5b-1-5-1-5-1-5-1-5-1-5-1-5-1-5-1-5-1-5-1-5-1-5-1-5-1-5-1-5-1-5-1-5-1-5-1-5-1b[0##1.194]/5b-1-5-1-5-1-5-1-5-1-5-1-5-1-5-1-5-1-5-1-5-1-5-1-5-1-5-1-5-1-5-1-5-1-5-1-5-1b[0##1.194]/5b-1-5-1-5-1-5-1-5-1-5-1-5-1-5-1-5-1-5-1-5-1-5-1-5-1-5-1-5-1-5-1-5-1-5-1-5-1b[0##1.194]/5b-1-5-1-5-1-5-1-5-1-5-1-5-1-5-1-5-1-5-1-5-1-5-1-5-1-5-1-5-1-5-1-5-1-5-1-5-1b[0##1.194]/5b-1-5-1-5-1-5-1-5-1-5-1-5-1-5-1-5-1-5-1-5-1-5-1-5-1-5-1-5-1-5-1-5-1-5-1-5-1b[0##1.194]/5b-1-5-1-5-1-5-1-5-1-5-1-5-1-5-1-5-1-5-1-5-1-5-1-5-1-5-1-5-1-5-1-5-1-5-1-5-1b[0##1.194]/5b-1-5-1-5-1-5-1-5-1-5-1-5-1-5-1-5-1-5-1-5-1-5-1-5-1-5-1-5-1-5-1-5-1-5-1-5-1b[0##1.194]/5b-1-5-1-5-1-5-1-5-1-5-1-5-1-5-1-5-1-5-1-5-1-5-1-5-1-5-1-5-1-5-1-5-1-5-1-5-1b[0##1.194]/5b-1-5-1-5-1-5-1-5-1-5-1-5-1-5-1-5-1-5-1-5-1-5-1-5-1-5-1-5-1-5-1-5-1-5-1-5-1b[0##1.194]/5b-1-5-1-5-1-5-1-5-1-5-1-5-1-5-1-5-1-5-1-5-1-5-1-5-1-5-1-5-1-5-1-5-1-5-1-5-1b[0##1.194]/5b-1-5-1-5-1-5-1-5-1-5-1-5-1-5-1-5-1-5-1-5-1-5-1-5-1-5-1-5-1-5-1-5-1-5-1-5-1b[0##1.194]/5b-1-5-1-5-1-5-1-5-1-5-1-5-1-5-1-5-1-5-1-5-1-5-1-5-1-5-1-5-1-5-1-5-1-5-1-5-1b[0##1.194]/5b-1-5-1-5-1-5-1-5-1-5-1-5-1-5-1-5-1-5-1-5-1-5-1-5-1-5-1-5-1-5-1-5-1-5-1-5-1b[0##1.194]/5b-1-5-1-5-1-5-1-5-1-5-1-5-1-5-1-5-1-5-1-5-1-5-1-5-1-5-1-5-1-5-1-5-1-5-1-5-1b[0##1.194]/5b-1-5-1-5-1-5-1-5-1-5-1-5-1-5-1-5-1-5-1-5-1-5-1-5-1-5-1-5-1-5-1-5-1-5-1-5-1b[0##1.194]/5b-1-5-1-5-1-5-1-5-1-5-1-5-1-5-1-5-1-5-1-5-1-5-1-5-1-5-1-5-1-5-1-5-1-5-1-5-1b[0##1.194]/5b-1-5-1-5-1-5-1-5-1-5-1-5-1-5-1-5-1-5-1-5-1-5-1-5-1-5-1-5-1-5-1-5-1-5-1-5-1b[0##1.194]/5b-1-5-1-5-1-5-1-5-1-5-1-5-1-5-1-5-1-5-1-5-1-5-1-5-1-5-1-5-1-5-1-5-1-5-1-5-1b[0##1.194]/5b-1-5-1-5-1-5-1-5-1-5-1-5-1-5-1-5-1-5-1-5-1-5-1-5-1-5-1-5-1-5-1-5-1-5-1-5-1b[0##1.194]/5b-1-5-1-5-1-5-1-5-1-5-1-5-1-5-1-5-1-5-1-5-1-5-1-5-1-5-1-5-1-5-1-5-1-5-1-5-1b[0##1.194]/5b-1-5-1-5-1-5-1-5-1-5-1-5-1-5-1-5-1-5-1-5-1-5-1-5-1-5-1-5-1-5-1-5-1-5-1-5-1b[0##1.194]/5b-1-5-1-5-1-5-1-5-1-5-1-5-1-5-1-5-1-5-1-5-1-5-1-5-1-5-1-5-1-5-1-5-1-5-1-5-1b[0##1.194]/5b-1-5-1-5-1-5-1-5-1-5-1-5-1-5-1-5-1-5-1-5-1-5-1-5-1-5-1-5-1-5-1-5-1-5-1-5-1b[0##1.194]/5b-1-5-1-5-1-5-1-5-1-5-1-5-1-5-1-5-1-5-1-5-1-5-1-5-1-5-1-5-1-5-1-5-1-5-1-5-1b[0##1.194]/5b-1-5-1-5-1-5-1-5-1-5-1-5-1-5-1-5-1-5-1-5-1-5-1-5-1-5-1-5-1-5-1-5-1-5-1-5-1b[0##1.194]/5b-1-5-1-5-1-5-1-5-1-5-1-5-1-5-1-5-1-5-1-5-1-5-1-5-1-5-1-5-1-5-1-5-1-5-1-5-1b[0##1.194]/5b-1-5-1-5-1-5-1-5-1-5-1-5-1-5-1-5-1-5-1-5-1-5-1-5-1-5-1-5-1-5-1-5-1-5-1-5-1b[0##1.194]/5b-1-5-1-5-1-5-1-5-1-5-1-5-1-5-1-5-1-5-1-5-1-5-1-5-1-5-1-5-1-5-1-5-1-5-1-5-1b[0##1.194]/5b-1-5-1-5-1-5-1-5-1-5-1-5-1-5-1-5-1-5-1-5-1-5-1-5-1-5-1-5-1-5-1-5-1-5-1-5-1b[0##1.194]/5b-1-5-1-5-1-5-1-5-1-5-1-5-1-5-1-5-1-5-1-5-1-5-1-5-1-5-1-5-1-5-1-5-1-5-1-5-1b[0##1.194]/5b-1-5-1-5-1-5-1-5-1-5-1-5-1-5-1-5-1-5-1-5-1-5-1-5-1-5-1-5-1-5-1-5-1-5-1-5-1b[0##1.194]/5b-1-5-1-5-1-5-1-5-1-5-1-5-1-5-1-5-1-5-1-5-1-5-1-5-1-5-1-5-1-5-1-5-1-5-1-5-1b[0##1.194]/5b-1-5-1-5-1-5-1-5-1-5-1-5-1-5-1-5-1-5-1-5-1-5-1-5-1-5-1-5-1-5-1-5-1-5-1-5-1b[0##1.194]/5b-1-5-1-5-1-5-1-5-1-5-1-5-1-5-1-5-1-5-1-5-1-5-1-5-1-5-1-5-1-5-1-5-1-5-1-5-1b[0##1.194]/5b-1-5-1-5-1-5-1-5-1-5-1-5-1-5-1-5-1-5-1-5-1-5-1-5-1-5-1-5-1-5-1-5-1-5-1-5-1b[0##1.194]/5b-1-5-1-5-1-5-1-5-1-5-1-5-1-5-1-5-1-5-1-5-1-5-1-5-1-5-1-5-1-5-1-5-1-5-1-5-1b[0##1.194]/5b-1-5-1-5-1-5-1-5-1-5-1-5-1-5-1-5-1-5-1-5-1-5-1-5-1-5-1-5-1-5-1-5-1-5-1-5-1b[0##1.194]/5b-1-5-1-5-1-5-1-5-1-5-1-5-1-5-1-5-1-5-1-5-1-5-1-5-1-5-1-5-1-5-1-5-1-5-1-5-1b[0##1.194]/5b-1-5-1-5-1-5-1-5-1-5-1-5-1-5-1-5-1-5-1-5-1-5-1-5-1-5-1-5-1-5-1-5-1-5-1-5-1b[0##1.194]/5b-1-5-1-5-1-5-1-5-1-5-1-5-1-5-1-5-1-5-1-5-1-5-1-5-1-5-1-5-1-5-1-5-1-5-1-5-1b[0##1.194]/5b-1-5-1-5-1-5-1-5-1-5-1-5-1-5-1-5-1-5-1-5-1-5-1-5-1-5-1-5-1-5-1-5-1-5-1-5-1b[0##1.194]/5b-1-5-1-5-1-5-1-5-1-5-1-5-1-5-1-5-1-5-1-5-1-5-1-5-1-5-1-5-1-5-1-5-1-5-1-5-1b[0##1.194]/5b-1-5-1-5-1-5-1-5-1-5-1-5-1-5-1-5-1-5-1-5-1-5-1-5-1-5-1-5-1-5-1-5-1-5-1-5-1b[0##1.194]/5b-1-5-1-5-1-5-1-5-1-5-1-5-1-5-1-5-1-5-1-5-1-5-1-5-1-5-1-5-1-5-1-5-1-5-1-5-1b[0##1.194]/5b-1-5-1-5-1-5-1-5-1-5-1-5-1-5-1-5-1-5-1-5-1-5-1-5-1-5-1-5-1-5-1-5-1-5-1-5-1b[0##1.194]/5b-1-5-1-5-1-5-1-5-1-5-1-5-1-5-1-5-1-5-1-5-1-5-1-5-1-5-1-5-1-5-1-5-1-5-1-5-1b[0##1.194]/5b-1-5-1-5-1-5-1-5-1-5-1-5-1-5-1-5-1-5-1-5-1-5-1-5-1-5-1-5-1-5-1-5-1-5-1-5-1b[0##1.194]/5b-1-5-1-5-1-5-1-5-1-5-1-5-1-5-1-5-1-5-1-5-1-5-1-5-1-5-1-5-1-5-1-5-1-5-1-5-1b[0##1.194]/5b-1-5-1-5-1-5-1-5-1-5-1-5-1-5-1-5-1-5-1-5-1-5-1-5-1-5-1-5-1-5-1-5-1-5-1-5-1b[0##1.194]/5b-1-5-1-5-1-5-1-5-1-5-1-5-1-5-1-5-1-5-1-5-1-5-1-5-1-5-1-5-1-5-1-5-1-5-1-5-1b[0##1.194]/5b-1-5-1-5-1-5-1-5-1-5-1-5-1-5-1-5-1-5-1-5-1-5-1-5-1-5-1-5-1-5-1-5-1-5-1-5-1b[0##1.194]/5b-1-5-1-5-1-5-1-5-1-5-1-5-1-5-1-5-1-5-1-5-1-5-1-5-1-5-1-5-1-5-1-5-1-5-1-5-1b[0##1.194]/5b-1-5-1-5-1-5-1-5-1-5-1-5-1-5-1-5-1-5-1-5-1-5-1-5-1-5-1-5-1-5-1-5-1-5-1-5-1b[0##1.194]/5b-1-5-1-5-1-5-1-5-1-5-1-5-1-5-1-5-1-5-1-5-1-5-1-5-1-5-1-5-1-5-1-5-1-5-1-5-1b[0##1.194]/5b-1-5-1-5-1-5-1-5-1-5-1-5-1-5-1-5-1-5-1-5-1-5-1-5-1-5-1-5-1-5-1-5-1-5-1-5-1b[0##1.194]/5b-1-5-1-5-1-5-1-5-1-5-1-5-1-5-1-5-1-5-1-5-1-5-1-5-1-5-1-5-1-5-1-5-1-5-1-5-1b[0##1.194]/5b-1-5-1-5-1-5-1-5-1-5-1-5-1-5-1-5-1-5-1-5-1-5-1-5-1-5-1-5-1-5-1-5-1-5-1-5-1b[0##1.194]/5b-1-5-1-5-1-5-1-5-1-5-1-5-1-5-1-5-1-5-1-5-1-5-1-5-1-5-1-5-1-5-1-5-1-5-1-5-1b[0##1.194]/5b-1-5-1-5-1-5-1-5-1-5-1-5-1-5-1-5-1-5-1-5-1-5-1-5-1-5-1-5-1-5-1-5-1-5-1-5-1b[0##1.194]/5b-1-5-1-5-1-5-1-5-1-5-1-5-1-5-1-5-1-5-1-5-1-5-1-5-1-5-1-5-1-5-1-5-1-5-1-5-1b[0##1.194]/5b-1-5-1-5-1-5-1-5-1-5-1-5-1-5-1-5-1-5-1-5-1-5-1-5-1-5-1-5-1-5-1-5-1-5-1-5-1b[0##1.194]/5b-1-5-1-5-1-5-1-5-1-5-1-5-1-5-1-5-1-5-1-5-1-5-1-5-1-5-1-5-1-5-1-5-1-5-1-5-1b[0##1.194]/5b-1-5-1-5-1-5-1-5-1-5-1-5-1-5-1-5-1-5-1-5-1-5-1-5-1-5-1-5-1-5-1-5-1-5-1-5-1b[0##1.194]/5b-1-5-1-5-1-5-1-5-1-5-1-5-1-5-1-5-1-5-1-5-1-5-1-5-1-5-1-5-1-5-1-5-1-5-1-5-1b[0##1.194]/5b-1-5-1-5-1-5-1-5-1-5-1-5-1-5-1-5-1-5-1-5-1-5-1-5-1-5-1-5-1-5-1-5-1-5-1-5-1b[0##1.194]/5b-1-5-1-5-1-5-1-5-1-5-1-5-1-5-1-5-1-5-1-5-1-5-1-5-1-5-1-5-1-5-1-5-1-5-1-5-1b[0##1.194]/5b-1-5-1-5-1-5-1-5-1-5-1-5-1-5-1-5-1-5-1-5-1-5-1-5-1-5-1-5-1-5-1-5-1-5-1-5-1b[0##1.194]/5b-1-5-1-5-1-5-1-5-1-5-1-5-1-5-1-5-1-5-1-5-1-5-1-5-1-5-1-5-1-5-1-5-1-5-1-5-1b[0##1.194]/5b-1-5-1-5-1-5-1-5-1-5-1-5-1-5-1-5-1-5-1-5-1-5-1-5-1-5-1-5-1-5-1-5-1-5-1-5-1b[0##1.194]/5b-1-5-1-5-1-5-1-5-1-5-1-5-1-5-1-5-1-5-1-5-1-5-1-5-1-5-1-5-1-5-1-5-1-5-1-5-1b[0##1.194]/5b-1-5-1-5-1-5-1-5-1-5-1-5-1-5-1-5-1-5-1-5-1-5-1-5-1-5-1-5-1-5-1-5-1-5-1-5-1b[0##1.194]/5b-1-5-1-5-1-5-1-5-1-5-1-5-1-5-1-5-1-5-1-5-1-5-1-5-1-5-1-5-1-5-1-5-1-5-1-5-1b[0##1.194]/5b-1-5-1-5-1-5-1-5-1-5-1-5-1-5-1-5-1-5-1-5-1-5-1-5-1-5-1-5-1-5-1-5-1-5-1-5-1b[0##1.194]/5b-1-5-1-5-1-5-1-5-1-5-1-5-1-5-1-5-1-5-1-5-1-5-1-5-1-5-1-5-1-5-1-5-1-5-1-5-1b[0##1.194]/5b-1-5-1-5-1-5-1-5-1-5-1-5-1-5-1-5-1-5-1-5-1-5-1-5-1-5-1-5-1-5-1-5-1-5-1-5-1b[0##1.194]/5b-1-5-1-5-1-5-1-5-1-5-1-5-1-5-1-5-1-5-1-5-1-5-1-5-1-5-1-5-1-5-1-5-1-5-1-5-1b[0##1.194]/5b-1-5-1-5-1-5-1-5-1-5-1-5-1-5-1-5-1-5-1-5-1-5-1-5-1-5-1-5-1-5-1-5-1-5-1-5-1b[0##1.194]/5b-1-5-1-5-1-5-1-5-1-5-1-5-1-5-1-5-1-5-1-5-1-5-1-5-1-5-1-5-1-5-1-5-1-5-1-5-1b[0##1.194]/5b-1-5-1-5-1-5-1-5-1-5-1-5-1-5-1-5-1-5-1-5-1-5-1-5-1-5-1-5-1-5-1-5-1-5-1-5-1b[0##1.194]/5b-1-5-1-5-1-5-1-5-1-5-1-5-1-5-1-5-1-5-1-5-1-5-1-5-1-5-1-5-1-5-1-5-1-5-1-5-1b[0##1.194]/5b-1-5-1-5-1-5-1-5-1-5-1-5-1-5-1-5-1-5-1-5-1-5-1-5-1-5-1-5-1-5-1-5-1-5-1-5-1b[0##1.194]/5b-1-5-1-5-1-5-1-5-1-5-1-5-1-5-1-5-1-5-1-5-1-5-1-5-1-5-1-5-1-5-1-5-1-5-1-5-1b[0##1.194]/5b-1-5-1-5-1-5-1-5-1-5-1-5-1-5-1-5-1-5-1-5-1-5-1-5-1-5-1-5-1-5-1-5-1-5-1-5-1b[0##1.194]`4?pp5q1[1.194##0.0746]`6?qq5p1[1.194##0.0746],1,1,1,1,1,1,1,1,1,1,1,1,1,1,1,1,1,1,1,1,1,B5`1,C`1,
B1`1b,A1f/D1f/A8f/E1f/D2f/A2f/B1f/E2f/E3f/D3f/D8f/E8f,{4},,,{16},,{24},{2}5h[8:7]/3h[8:7],
4bh[8:3],
1b-4b[8:1]/5b-8-5b[4:3],{16}3/7,4/8,1/5,2/6,3/7,4/8,1/5,2/6,
{8}3>8[8:1]/7<4[8:1],{16}3/7,4/8,3/1/5/7-3[8:1],2/6,3/7,4/8,7/1/5/1-5[8:1],2/6,3/7,4/8,1/5/1/5,2/6,3/7,4/8,
2/1/5,4/2/6,3/3/7,7/4/8,5/1/5,6/2/6,1/3/7,4/4/8,3/1/5,8/2/6,5/3/7,6/4/8/3/7,2/1/5/4/8,7/2/6/1/5/3/7,4/3/7/2/6/4/8,5/4/8/3/7/1/5,
1b/1/5/4/8/2/6,2/6/1/5/3/7,3/7/2/6/4/8,4/7/4/8/1/5,1/5/2/6,2/6,3/5/3/7,4/8,3/1/5w1b[5.0746##0.0746],2/6,,,{4}5,
7/3>2[16:1],3/6<7[16:1],{8}6/4<5[8:1],3,4/5<6[8:1],6,
{4}5/2v1-5-1-5-1v6[8:1],1/2,{8}3/7,{16}4,8,3,7,2,6,
{4}1>4[8:1],{16}5,6,7,8,{4}1<6[8:1],{16}4,3,2,1,
8,4,8,4,1,5,1,5,{32}2,3,4,5,6,7,8,1,{4}2b/6,
8b-3b[8:1]/4-7[8:1],8/4,{16}6/2,5/1,8/4,7/3,6/2,5/1,8/4,7/3,
6/2/6<1[8:1]/2>5[8:1],5/1,8/4,7/3,6/6/2/2-6[8:1],5/1,8/4,7/3,2/6/2/8-4[8:1],5/1,8/4,7/3,8/4/6/2,5/1,8/4,7/3,
6/2,5/1,8/4,7/3,6/2,5/1,8/4,7/3,6/2/6<1[8:1]/2>5[8:1],5/1,8/4,7/3,6/6/2/2-6[8:1],5/1,8/4,7/3,
2/6/2/8b-3[8:1]/4-7[8:1]/8-4[8:1],5/1,8/4,7/3,4/8/8/4/6/2,5/1,8/4,7/3,6/2/1b<6[8:1]/5>2[8:1],5/1,8/4,7/3,1/5/6/2,5/1,8/4,7/3,
5/6/2/1-5[8:1]/6<1[8:1]/2>5[8:1],5/1,1/8/4,7/3,1/6/6/2/7-3[8:1]/2-6[8:1],5/1/6/2,7/8/4/5/1,7/3/8/4,7/2/6/2/7/3/2-6[8:1]/8-4[8:1],5/1/6/2,2/8/4/5/1,7/3/8/4,2/8/4/6/2/7/3/8-4[8:1],5/1/6/2/6<1[8:1]/2>5[8:1],8/8/4/5/1,7/3/8/4,
8/7/3/5-1[8:1],6/6/2/2-6[8:1],5/5/1,8/4,5/7/3/6-2[8:1],2/6/2/8-4[8:1],6/5/1,8/4,6/7/3/7<4[8:1],8/4/6/2,7/5/1,8/4,{4}7/8/7/3,
{16}2?<1b[0##0],1?<8[0##0],2?<1[0##0],1?<8[0##0],2?<1[0##0],3?>2[0##0],2?<1[0##0],3?>2[0##0],4?>3[0##0],3?>2[0##0],4?>3[0##0],3?>2[0##0],4?>3[0##0],5?>4[0##0],4?>3[0##0],5?>4[0##0],
{8}4?>3b[0##0],{32}7,6,5,4,,,,,1/2,3,4,5,,,,,{8}7b/8?>1b[0##0],{4}1b/6?<7b[0##0]*-1b[0##0],
{8}5/8h[16:97]/2h[16:97]/A5,5/A5,,B5,{4}B5,{8}5/A5,5/A5,
,A5,{4}B5,{2}2>5[8:1]/8<5[8:1],
{8}5/A5,5/A5,{16},,5b,5b,{4}5b,{8}5,5,
{16},,5b/B5,5b/B5,{4}5b/B5,{2}2>5[8:1]/8<5[8:1],
{4}5b,{16}5,5,5,5,5,5,5,5,5,5,5,5,
5,5,5,5,5,5,5,5,5,5,5,5,{8}4/5,{16}5b,5b,
{24}5b-1b[0##0.1493],B6/B5/B4,B7/C/E3/B2/B8/B1/E8/B3,A7/D8/A8/D1/A1/E1/D2/E2/A2/D3/A3/B2/B1/B8,,,,,,,,,A8/B7/E7/A7/D7/A6/D6/D5/A5/E6/B6/E5/B5/C/B4/E8/B3/A4/D4/A3/D3/E3/A2/B2/E2/B8/B1/D2/E1/D1/A1/E4/D8,,,,,,,A8/B7/E7/A7/D7/A6/D6/D5/A5/E6/B6/E5/B5/C/B4/E8/B3/A4/D4/A3/D3/E3/A2/B2/E2/B8/B1/D2/E1/D1/A1/E4/D8,,,,,,,,{8}A8/B7/E7/A7/D7/A6/D6/D5/A5/E6/B6/E5/B5/C/B4/E8/B3/A4/D4/A3/D3/E3/A2/B2/E2/B8/B1/D2/E1/D1/A1/E4/D8,
,,,A8/B7/E7/A7/D7/A6/D6/D5/A5/E6/B6/E5/B5/C/B4/E8/B3/A4/D4/A3/D3/E3/A2/B2/E2/B8/B1/D2/E1/D1/A1/E4/D8,,,,,{4}A8/B7/E7/A7/D7/A6/D6/D5/A5/E6/B6/E5/B5/C/B4/E8/B3/A4/D4/A3/D3/E3/A2/B2/E2/B8/B1/D2/E1/D1/A1/E4/D8,
{8},,,,,A8/B7/E7/A7/D7/A6/D6/D5/A5/E6/B6/E5/B5/C/B4/E8/B3/A4/D4/A3/D3/E3/A2/B2/E2/B8/B1/D2/E1/D1/A1/E4/D8,
,,,,,,{4}4b/8bh[4:1],
{8}6,6h[4:1],,4,{4}4h[4:1],
{8}2,2h[4:1],,1,{4}1,3/8,
{8}4/7,4/7,{16}6,5,6,5,{8}6,{16}3,4,{8}3,2/5,
{16}3,4,,6,{8}5,1/8,{4}8<5<8<5<8<5[8:3]/1>4>1>4>1>4[8:3],1b/8b,
{64},,,,,,,,6,5,7,5,{16}1,7-3[8:1],{32}8,{64}8,7,6,,,2,1,6,3/6,6,{4}7,{8}2/4,3/5,
4/6,{24}7,5,7,{8}5,{24}2,4,2,{8}4,{16}1/3,1/3,{4}3qq6[8:1]/1pp6[8:1],
3qq6b[8:1]/1pp6b[8:1],1b/3b,{8}8,7h[12:1]/5h[12:1],{24},2h[12:1]/4h[12:1],,,,,{12}3/5b,
3/5b,{6}3/5b,{48},,{16}5h[32:1],5h[32:1],5h[32:1],5h[32:1],{8}5bw1[8:1],{4}4b,
{16}2,6,2,6,1,5,2,6,{6}3b/7b,{12}2/8b/1b,2/8b/1b,2/8b/1b,2/8b/1b,
{32}1b/2b/4b/3b/5b/6b/7b/8b,{96}2,8b/7b/6b/5b/4b/3b/1b,,{48}3,{96}1b/2b/3b/5b/6b/7b/8b,4,,,{8}7/8b/6b/5b/4b/3b/1b/2b,{32}1b,2,3,4,{8}6,{32},,,5,,,,5,,,,5,,,,5,
{1},{2}2h[4:1]/8h[2:13],
5h/2h[1:6],
{8}6qq5p1b[6.4179##0.1493]/6qq5p1b[6.4179##0.1493]/4pp5q1b[6.4179##0.1493]/6qq5p1b[6.4179##0.1493]/4pp5q1b[6.4179##0.1493]/6qq5p1b[6.4179##0.1493]/4pp5q1b[6.4179##0.1493]/6qq5p1b[6.4179##0.1493]/4pp5q1b[6.4179##0.1493]/6qq5p1b[6.4179##0.1493]/4pp5q1b[6.4179##0.1493]/6qq5p1b[6.4179##0.1493]/4pp5q1b[6.4179##0.1493]/6qq5p1b[6.4179##0.1493]/4pp5q1b[6.4179##0.1493]/4pp5q1b[6.4179##0.1493]/4pp5q1b[6.4179##0.1493]/6qq5p1b[6.4179##0.1493]/4pp5q1b[6.4179##0.1493]/6qq5p1b[6.4179##0.1493]/4pp5q1b[6.4179##0.1493]/6qq5p1b[6.4179##0.1493]/4pp5q1b[6.4179##0.1493]/6qq5p1b[6.4179##0.1493]/4pp5q1b[6.4179##0.1493]/6qq5p1b[6.4179##0.1493]/4pp5q1b[6.4179##0.1493]/6qq5p1b[6.4179##0.1493]/4pp5q1b[6.4179##0.1493]/6qq5p1b[6.4179##0.1493]/6qq5p1b[6.4179##0.1493]/4pp5q1b[6.4179##0.1493]/6qq5p1b[6.4179##0.1493]/4pp5q1b[6.4179##0.1493]/6qq5p1b[6.4179##0.1493]/4pp5q1b[6.4179##0.1493]/6qq5p1b[6.4179##0.1493]/4pp5q1b[6.4179##0.1493]/6qq5p1b[6.4179##0.1493]/4pp5q1b[6.4179##0.1493]/6qq5p1b[6.4179##0.1493]/4pp5q1b[6.4179##0.1493]/4pp5q1b[6.4179##0.1493]/6qq5p1b[6.4179##0.1493]/6qq5p1b[6.4179##0.1493]/4pp5q1b[6.4179##0.1493]/6qq5p1b[6.4179##0.1493]/4pp5q1b[6.4179##0.1493]/6qq5p1b[6.4179##0.1493]/4pp5q1b[6.4179##0.1493]/6qq5p1b[6.4179##0.1493]/4pp5q1b[6.4179##0.1493]/6qq5p1b[6.4179##0.1493]/4pp5q1b[6.4179##0.1493]/6qq5p1b[6.4179##0.1493]/4pp5q1b[6.4179##0.1493]/4pp5q1b[6.4179##0.1493]/6qq5p1b[6.4179##0.1493]/6qq5p1b[6.4179##0.1493]/4pp5q1b[6.4179##0.1493]/6qq5p1b[6.4179##0.1493]/4pp5q1b[6.4179##0.1493]/6qq5p1b[6.4179##0.1493]/4pp5q1b[6.4179##0.1493]/6qq5p1b[6.4179##0.1493]/4pp5q1b[6.4179##0.1493]/6qq5p1b[6.4179##0.1493]/4pp5q1b[6.4179##0.1493]/6qq5p1b[6.4179##0.1493]/4pp5q1b[6.4179##0.1493]/4pp5q1b[6.4179##0.1493]/6qq5p1b[6.4179##0.1493]/6qq5p1b[6.4179##0.1493]/4pp5q1b[6.4179##0.1493]/6qq5p1b[6.4179##0.1493]/4pp5q1b[6.4179##0.1493]/6qq5p1b[6.4179##0.1493]/4pp5q1b[6.4179##0.1493]/6qq5p1b[6.4179##0.1493]/4pp5q1b[6.4179##0.1493]/6qq5p1b[6.4179##0.1493]/4pp5q1b[6.4179##0.1493]/6qq5p1b[6.4179##0.1493]/4pp5q1b[6.4179##0.1493]/4pp5q1b[6.4179##0.1493]/6qq5p1b[6.4179##0.1493]/6qq5p1b[6.4179##0.1493]/4pp5q1b[6.4179##0.1493]/6qq5p1b[6.4179##0.1493]/4pp5q1b[6.4179##0.1493]/6qq5p1b[6.4179##0.1493]/4pp5q1b[6.4179##0.1493]/6qq5p1b[6.4179##0.1493]/4pp5q1b[6.4179##0.1493]/6qq5p1b[6.4179##0.1493]/4pp5q1b[6.4179##0.1493]/6qq5p1b[6.4179##0.1493]/4pp5q1b[6.4179##0.1493]/4pp5q1b[6.4179##0.1493]/6qq5p1b[6.4179##0.1493]/6qq5p1b[6.4179##0.1493]/4pp5q1b[6.4179##0.1493]/6qq5p1b[6.4179##0.1493]/4pp5q1b[6.4179##0.1493]/6qq5p1b[6.4179##0.1493]/4pp5q1b[6.4179##0.1493]/6qq5p1b[6.4179##0.1493]/4pp5q1b[6.4179##0.1493]/6qq5p1b[6.4179##0.1493]/4pp5q1b[6.4179##0.1493]/6qq5p1b[6.4179##0.1493]/4pp5q1b[6.4179##0.1493]/4pp5q1b[6.4179##0.1493]/6qq5p1b[6.4179##0.1493]/6qq5p1b[6.4179##0.1493]/4pp5q1b[6.4179##0.1493]/6qq5p1b[6.4179##0.1493]/4pp5q1b[6.4179##0.1493]/6qq5p1b[6.4179##0.1493]/4pp5q1b[6.4179##0.1493]/6qq5p1b[6.4179##0.1493]/4pp5q1b[6.4179##0.1493]/6qq5p1b[6.4179##0.1493]/4pp5q1b[6.4179##0.1493]/6qq5p1b[6.4179##0.1493]/4pp5q1b[6.4179##0.1493]/4pp5q1b[6.4179##0.1493]/6qq5p1b[6.4179##0.1493]/6qq5p1b[6.4179##0.1493]/4pp5q1b[6.4179##0.1493]/6qq5p1b[6.4179##0.1493]/4pp5q1b[6.4179##0.1493]/6qq5p1b[6.4179##0.1493]/4pp5q1b[6.4179##0.1493]/6qq5p1b[6.4179##0.1493]/4pp5q1b[6.4179##0.1493]/6qq5p1b[6.4179##0.1493]/4pp5q1b[6.4179##0.1493]/6qq5p1b[6.4179##0.1493]/4pp5q1b[6.4179##0.1493]/4pp5q1b[6.4179##0.1493]/6qq5p1b[6.4179##0.1493]/6qq5p1b[6.4179##0.1493]/4pp5q1b[6.4179##0.1493]/6qq5p1b[6.4179##0.1493]/4pp5q1b[6.4179##0.1493]/6qq5p1b[6.4179##0.1493]/4pp5q1b[6.4179##0.1493]/6qq5p1b[6.4179##0.1493]/4pp5q1b[6.4179##0.1493]/6qq5p1b[6.4179##0.1493]/4pp5q1b[6.4179##0.1493]/6qq5p1b[6.4179##0.1493]/4pp5q1b[6.4179##0.1493]/4pp5q1b[6.4179##0.1493]/6qq5p1b[6.4179##0.1493]/6qq5p1b[6.4179##0.1493]/4pp5q1b[6.4179##0.1493]/6qq5p1b[6.4179##0.1493]/4pp5q1b[6.4179##0.1493]/6qq5p1b[6.4179##0.1493]/4pp5q1b[6.4179##0.1493]/6qq5p1b[6.4179##0.1493]/4pp5q1b[6.4179##0.1493]/6qq5p1b[6.4179##0.1493]/4pp5q1b[6.4179##0.1493]/6qq5p1b[6.4179##0.1493]/4pp5q1b[6.4179##0.1493]/4pp5q1b[6.4179##0.1493]/6qq5p1b[6.4179##0.1493]/6qq5p1b[6.4179##0.1493]/4pp5q1b[6.4179##0.1493]/6qq5p1b[6.4179##0.1493]/4pp5q1b[6.4179##0.1493]/6qq5p1b[6.4179##0.1493]/4pp5q1b[6.4179##0.1493]/6qq5p1b[6.4179##0.1493]/4pp5q1b[6.4179##0.1493]/6qq5p1b[6.4179##0.1493]/4pp5q1b[6.4179##0.1493]/6qq5p1b[6.4179##0.1493]/4pp5q1b[6.4179##0.1493]/4pp5q1b[6.4179##0.1493]/6qq5p1b[6.4179##0.1493]/6qq5p1b[6.4179##0.1493]/4pp5q1b[6.4179##0.1493]/6qq5p1b[6.4179##0.1493]/4pp5q1b[6.4179##0.1493]/6qq5p1b[6.4179##0.1493]/4pp5q1b[6.4179##0.1493]/6qq5p1b[6.4179##0.1493]/4pp5q1b[6.4179##0.1493]/6qq5p1b[6.4179##0.1493]/4pp5q1b[6.4179##0.1493]/6qq5p1b[6.4179##0.1493]/4pp5q1b[6.4179##0.1493]/4pp5q1b[6.4179##0.1493]/6qq5p1b[6.4179##0.1493]/6qq5p1b[6.4179##0.1493]/4pp5q1b[6.4179##0.1493]/6qq5p1b[6.4179##0.1493]/4pp5q1b[6.4179##0.1493]/6qq5p1b[6.4179##0.1493]/4pp5q1b[6.4179##0.1493]/6qq5p1b[6.4179##0.1493]/4pp5q1b[6.4179##0.1493]/6qq5p1b[6.4179##0.1493]/4pp5q1b[6.4179##0.1493]/6qq5p1b[6.4179##0.1493]/4pp5q1b[6.4179##0.1493]/4pp5q1b[6.4179##0.1493]/6qq5p1b[6.4179##0.1493]/6qq5p1b[6.4179##0.1493]/4pp5q1b[6.4179##0.1493]/6qq5p1b[6.4179##0.1493]/4pp5q1b[6.4179##0.1493]/6qq5p1b[6.4179##0.1493]/4pp5q1b[6.4179##0.1493]/6qq5p1b[6.4179##0.1493]/4pp5q1b[6.4179##0.1493]/6qq5p1b[6.4179##0.1493]/4pp5q1b[6.4179##0.1493]/6qq5p1b[6.4179##0.1493]/4pp5q1b[6.4179##0.1493]/4pp5q1b[6.4179##0.1493]/6qq5p1b[6.4179##0.1493]/6qq5p1b[6.4179##0.1493]/4pp5q1b[6.4179##0.1493]/6qq5p1b[6.4179##0.1493]/4pp5q1b[6.4179##0.1493]/6qq5p1b[6.4179##0.1493]/4pp5q1b[6.4179##0.1493]/6qq5p1b[6.4179##0.1493]/4pp5q1b[6.4179##0.1493]/6qq5p1b[6.4179##0.1493]/4pp5q1b[6.4179##0.1493]/6qq5p1b[6.4179##0.1493]/4pp5q1b[6.4179##0.1493]/4pp5q1b[6.4179##0.1493]/6qq5p1b[6.4179##0.1493]/6qq5p1b[6.4179##0.1493]/4pp5q1b[6.4179##0.1493]/6qq5p1b[6.4179##0.1493]/4pp5q1b[6.4179##0.1493]/6qq5p1b[6.4179##0.1493]/4pp5q1b[6.4179##0.1493]/6qq5p1b[6.4179##0.1493]/4pp5q1b[6.4179##0.1493]/6qq5p1b[6.4179##0.1493]/4pp5q1b[6.4179##0.1493]/6qq5p1b[6.4179##0.1493]/4pp5q1b[6.4179##0.1493]/6qq5p1b[6.4179##0.1493]/4pp5q1b[6.4179##0.1493]/6qq5p1b[6.4179##0.1493]/4pp5q1b[6.4179##0.1493]/6qq5p1b[6.4179##0.1493]/4pp5q1b[6.4179##0.1493]/6qq5p1b[6.4179##0.1493]/4pp5q1b[6.4179##0.1493]/6qq5p1b[6.4179##0.1493]/4pp5q1b[6.4179##0.1493]/6qq5p1b[6.4179##0.1493]/4pp5q1b[6.4179##0.1493]/6qq5p1b[6.4179##0.1493]/4pp5q1b[6.4179##0.1493]/6qq5p1b[6.4179##0.1493]/4pp5q1b[6.4179##0.1493]/6qq5p1b[6.4179##0.1493]/4pp5q1b[6.4179##0.1493]/6qq5p1b[6.4179##0.1493]/4pp5q1b[6.4179##0.1493]/6qq5p1b[6.4179##0.1493]/4pp5q1b[6.4179##0.1493],{16}5?-1b[0##0]`7?>8-4>3-7v5-1>2-6>5[0##0],5?-1[0##0],5?-1b[0##0]`6?<7-3>2-6v4-8>1-5>4[0##0],5?-1[0##0],5?-1b[0##0]`7?>8-4>3-7v5-1>2-6>5[0##0],5?-1[0##0],5?-1b[0##0]`6?<7-3>2-6v4-8>1-5>4[0##0],5?-1[0##0],5?-1b[0##0]`7?>8-4>3-7v5-1>2-6>5[0##0],5?-1[0##0],5?-1b[0##0]`6?<7-3>2-6v4-8>1-5>4[0##0],5?-1[0##0],5?-1b[0##0],5?-1[0##0]`6?v3-5-1-4-7-2[0##0],
5?-1b[0##0],5?-1[0##0]`5?<6-2v5-8-4-7<6-8[0##0],5?-1b[0##0],5?-1[0##0]`1?pp4<6-2[0##0],5?-1b[0##0]`7?v5<6-1<7[0##0],5?-1[0##0],5?-1b[0##0]`1?-7-4-2-5[0##0],5?-1[0##0],5?-1b[0##0]`7?>8-4>3-7v5-1>2-6>5[0##0],5?-1[0##0],5?-1b[0##0]`6?<7-3>2-6v4-8>1-5>4[0##0],5?-1[0##0],5?-1b[0##0]`7?>8-4>3-7v5-1>2-6>5[0##0],5?-1[0##0],5?-1b[0##0]`6?<7-3>2-6v4-8>1-5>4[0##0],5?-1[0##0],
B7/C/B3/B4/E6/B5/B6/5?-1b[0##0],5?-1[0##0],,,,,,,,,,,,,,,,,,,{8}5b,
5b,5b,5b,{12}5b,5b,5b,
5b,{24}5b,5b,{48},{16}5b,5b,5b,5b,5b,5b,5b,5b,5b,{24}5b,5b,5b,5b,5b,5b,
5b,5b,5b,5b,{48}5b,{192}5b/Cfh[16:0]/5-1[0.0187##0.056],,,5b/5-1[0.0186##0.056],,,{64}5b/5-1[0.0187##0.056],5b/5-1[0.0187##0.056],5b/Cfh[16:0]/5-1[0.0186##0.056],5b/5-1[0.0187##0.056],5b/5-1[0.0187##0.056],5b/5-1[0.0187##0.056],5b/Cfh[16:0]/5-1[0.0186##0.056],5b/5-1[0.0187##0.056],5b/5-1[0.0187##0.056],5b/5-1[0.0186##0.056],5b/Cfh[16:0]/5-1[0.0187##0.056],5b/5-1[0.0187##0.056],5b/5-1[0.0186##0.056],5b/5-1[0.0187##0.056],5b,5b,5b,5b,
E
