&title=Noël
&artist=Morimori Atsushi vs. uma
&first=0.46
&des=P4P1N002
&lv_5=15
&inote_5=(220)
{4}
A1/B1,,,A2/B2,,,A3/B3,,,A4/B4,,,A5/B5,,,A6/B6,,,A7/B7,,,
{16}
A8/B8,,,,1h[16:1]/2h[16:1],,1h[16:1]/2h[16:1],,
1b/2bq5[4:3],,,,7h[4:1],,,,,,,,5,,6,,7-4b[8:1],,,,,,,,
7bp4[4:3],,,,2h[4:1],,,,,,,,4,,3,,2>6[8:1],,,,
{32}
6bw2b[8:1],7x,8x,1x,2x,,,,,B6,Cf,B2,
{16}
A2,,4xh[4:1],,,,2h[4:1],,,,8h[4:1],,,,6h[4:1],,,,
4b,,,,12,,83,,74,,,,,,,,87,,16,,25,,,,
1x-5[8:1],8x,2x,7x,1b,,,,
7-5[8:1],,,,7-3[8:1]/8-2[8:1],,,,8-4[8:1]/7-5[8:1],,,,7-3[8:1]/8-2[8:1],,,,
8-4[8:1]/7-5[8:1],,,,7q3[8:1]/8>2[8:1],,,,8p4[8:1]/7<5[8:1],,,,7q3[8:1]/8>2[8:1],,,,
8p4[8:1]/7<5[8:1],,,,7q3[8:1]/8>2[8:1],,,,8p4[8:1]/7<5[8:1],,,,7b/8b,,,,
2-4[8:1],,,,2-6[8:1]/1-7[8:1],,,,1-5[8:1]/2-4[8:1],,,,2-6[8:1]/1-7[8:1],,,,
1-5[8:1]/2-4[8:1],,,,2p6[8:1]/1<7[8:1],,,,1q5[8:1]/2>4[8:1],,,,2p6[8:1]/1<7[8:1],,,,
1q5[8:1]/2>4[8:1],,,,2p6[8:1]/1<7[8:1],,,,1q5[8:1]/2>4[8:1],,,,2b/1b,,,,
8-5[8:1],,,,1-4[8:1],,,,2-7[8:1],,,,3-6[8:1],,,,
8b,,,,
{32}
8<4[8:1],,,,4x,3x,2x,1x,
{16}
8-2-4[4:1],,,,4-6-8[4:1],,,,8>4[4:1],,,,4-8b[8:1],,,,
{32}
,B4,C,B8,A8,,,,2b/6b,,,,,,,,
{16}
5v8[8:1]/3v8[8:1],,,,,,,,4,4,4,4,5v6-4-8[8:3]/3v2-4-8[8:3],,,,,,,,,,,,
3,5,3,5,2,6,2,6,1,7,1,7,8-4[4:1],,,,,,,,5,,6,,7q4[4:1],,,,7,,,,,,8,1,2<7[2:1],,,,
C,,,,7<4[2:1],,,,C,,,,4>1[2:1],,,,C,,,,A8/B8,,,,A7/B7,,,,
25,,16,,7-3-7[8:3]/8,,,,7,,,,,,,,1-5-1[8:3],,,,1,,,,,,,,
8-4-8[8:3],,,,8,,,,,,,,2-6-2[8:3],,,,2,,,,,,,,5h[4:1],,,,4,,6,,3,,7,,1h[16:3],,,,
82,,82,,37,,37,,46,,,,8,7,1,6,8s4[2:1],7,1,6,8,,,,,,,,,,,,4,,,,4,,,,4,,,,
{32}
4,3,2,,
{16}
,,7-3[8:1]/2,,7,,7/2-6[8:1],,2,,8-4[8:1]/2,,8,,1-5[8:1]/8,,1,,1/7-3[8:1],,7,,7,,,,
{32}
2b,B2,Cf,B6,A6,,,,8b,B8,C,B4,A4,,,,
{16}
1qq4[1:1],,,,15,,,,,,5h[8:1],,,,,,6,,,,7,,,,
8<3[8:7],,,,4,,5,,6>3b[8:3],,,,1,,,,2b,,,,
23,,14,,8-4[8:1]/5-1[8:1],,,,85,,,,,,,,
7-5[8:1]/4q8[8:1],,,,74,,,,,,,,2-4[8:1]/5p1[8:1],,,,25,,,,,,,,
5s1[8:1]/4z8[8:1],,,,54,,,,,,,,7h[16:8],,,,2,3h[16:7],,,8,1h[16:7],,,
4,5h[16:7],,,8,7h[16:7],,,4,3h[16:7],,,
6,5h[16:7],,,2,1h[16:3],,,24,,15,,8/6>4-8[2:1],,,,1,,,,2,,,,
3,2,1,8,73,6,5,4,37,2,1,8,73,4,5,6,73,8,1,2,37,4,5,6,7/3b,,,,,,,,,,,,
B6,E6,,,
{32}
A1,D2,A2,D3,A3,D4,A4,D5,A5,D6,A6,D7,A7,D8,A8,D1,
{16}
A1f/5,4,3,2,1/3h,8,7,6,5,4,3,2,1/5h,8,7,6,5/3h,4,3,2,1,8,7,6,5/1h,4,3,2,
1/3h,8,7,6,5,4,3,2,1h[2:1],,,,,,,,,,,,
1/7h,2,3,4,5/1h,6,7,8,1,2,3,4,5/1h,6,7,8,1/7h,2,3,4,5,6,7,8,
1/7h,2,3,4,5/1h,6,7,8,1,2,3,4,5h[2:1],,,,,,,,,,,,
1b/5,4,3,2,1/3bh,8,7,6,5,4,3,2,1/5bh,8,7,6,5/3bh,4,3,2,1,8,7,6,5/1bh,4,3,2,
1/3bh,8,7,6,5,4,3,2,1h[2:1],,,,,,,,,,,,
1/7bh,2,3,4,5/1bh,6,7,8,1,2,3,4,5/1bh,6,7,8,1/7bh,2,3,4,5,6,7,8,
1/7bh,2,3,4,5/1bh,6,7,8,1,2,3,4,5h[8:1],,,,8xh[8:1]/2xh[8:1],,,,7xh[8:1]/3xh[8:1],,,,
6-8-4[4:3]/4b,,,,,,,,,,,,4-6-8[4:3],,,,,,,,,,,,8-2-4[4:3],,,,,,,,,,,,
4-8-2[4:3],,,,,,,,,,,,2-6-8[4:3],,,,,,,,,,,,8-4-6[4:3],,,,,,,,,,,,
2-8-6[4:3],,,,,,,,,,,,6>4-8[2:1],,,,7,,8,,1,,,,1<7-3[4:3],,,,
5,,4,,3,,2,,1-5-1[4:2],,,,8,,,,7<5-1[4:3]/A5f,,,,7,,,,1,,2,,3,,4,,5z1[4:1],,,,1,,8,,7,,,,
3>1-5[4:3],,,,5,,6,,7,,8,,1<7-3[4:3],,,,3,,,,4,,,,5-1[4:1],,,,5b,,,,,,,,
1,8,7,2,1,8,7,2,1-5[8:44],8,7,2,1,,,,,,,,,,,,
D7,,,,,,,,,,,,D3,,,,,,,,,,,,E7,,,,,,,,,,,,E3,,,,,,,,,,,,
6,,,,7,,,,8,,,,1-5b[2:1],,,,,,,,,,,,,,,,,,,,
4,,5,,6h[4:1],,,,5h[4:1],,,,4h[4:1],,,,3h[4:1],,,,
6h[4:1],,,,5h[4:1],,,,4h[4:1],,,,3h[4:1],,,,
6h[4:1],,,,5h[4:1],,,,4h[4:1],,,,3h[4:1],,,,
6b,,,,,,,,
{24}
3xv6[16:28]/6xv3[16:28],5x,4x,3x/6x,,,3b/6b,,,
{16}
,,,,,,,,5h[16:14],,4h[16:12],,,,,,,,,,,,,,,,,,,,
{24}
E7,B6,B3,
{16}
E3f,,5xb/4xb,,,,,,,,
{32}
1h[8:1]/8h[8:1],,,,,,,,
7b/6b,,,,,,,,
5b/4b,,,,,,,,
2b/3b,,,,,,,,
{16}
1/2h[2:1],,1,,1,,1,,8,2,7,3,4/6h[2:1],,5,,5,,5,,5,6,4,7,
3-7[8:1],,4,,3-6[8:1],,6,,8-6-4[4:1]/3,,,,4-8[4:1],,3,,2,,1,,2,,3,,
45,,6,5,7,,45,,3,4,2,,75,,6,5,7,,24,,3,4,2,,
{24}
8,7,6h[6:1],,,,
{16}
2h[8:1],,5,,4/3h[8:1],,5,,4/1h[8:1],,6,,5/3h[8:1],,6,,8h[8:1]/1,,2,,3/7h[8:1],,2,,
6h[8:1]/3,,4,,5/8h[8:1],,4,,5/7h[8:1],,3,,3h[8:1]/6,,5,,7/2h[8:1],,6,,1b/8b,,,,,,,,
63,,72,,1-5[8:1]/8-4[8:1],,,,1b/8b,,,,,,75,,18,,12,,23,,64,,65,,76,,
7/8-4[8:1],,1,,
{24}
7x-3[8:1]/8x,6,5,4,,,8x/7x,1,2,3,,,
{4}
A8f/B8,,,A7/B7,,,A6/B6,,,A5/B5,,,A4/B4,,,A3/B3,,,A2/B2,,,
{16}
A1/B1,,,,,,,,4,,,,3h[16:1]/E8/B7,,,,5,,,,3,,2,,1h[16:1]/E6/B5,,,,
3,,,,5,,,,7h[16:1]/B3/E4,,,,5,,,,6,,7,,8h[16:1]/E2/B1,,,,
4,,,,3,,,,1h[16:1]/E1,,,,7,,,,6,,,,5/E5,,,,C,,,,
7b/8b,,7b/8b,,
{24}
78,16,25,34,,,
{16}
,,,,
2b/1b,,2b/1b,,
{24}
21,83,74,65,,,
{16}
,,,,
3b/2b,,3b/2b,,
{24}
32,14,85,76,,,
{16}
,,,,
6b/7b,,6b/7b,,
{24}
6qq3[2:1]/7pp2[2:1],85,14,23,,,
{16}
,,,,,,,,,,,,
{24}
7/4h,6,5,,,,7/3h,6,5,,,,7/2h,6,5,,,,7/4h,6,5,,,,
7/3h,6,5,,,,7/2h,6,5,,,,7/4h,6,5,,,,7/3h,6,5,,,,
7/2h,6,5,,,,7/4h,6,5,,,,7/3h,6,5,3h,,,
2/5h,3,4,,,,2/6h,3,4,,,,2/7h,3,4,,,,2/5h,3,4,,,,
2/6h,3,4,,,,2/7h,3,4,
,,,
2b/5b,3/6h,4,,,,2b/5b,3/6h
,4,,,,2b/5b,3/6h,4,,,,
2b/5b,3/6h,7h/4,,,,2b/5b,3/6h,7h/4,,,,2b/5b,3/6h,7h/4,,,,
2,1,8,7,6,5,4h/2,1,8,7,6,5,4h/2,1,8,7,6,5,4h/2,1,8,7,6,5,
4h/2,3,4,5,6,7,8h/4,5,6,7,8,1,
2h/4,3,2,1,8,7,4/6h,3,2,1,8,7,4/6h,3,2,1,8,7,4/6h,3,2,1,8,7,
6h/4,5,6,7,8,1,2/6h,3,4,5,6,7,
{32}
8b/4h,A1,B1,Cf,B5,A5,,,,,,,,,,,
{16}
1,2,1,2,8h[4:1],,,,,,,,5,6,5,6,7h[4:3]/4h[4:3],,,,,,,,,,,,
{24}
,36,52,14,38,2,1,8,7,63,4,5,6,7,8,1,27,36,
A5h[4:3]/A4h[4:6]/E5h[4:9]/B5h[4:12]/B4h[4:12],,,,,,,,,,,,
{4}
,,,,,,,,,,Cf,
