&title=快乐崇拜
&artist=潘玮柏/张韶涵
&first=0
&des=Chalman_JK
&wholebpm=125
&shortid=
&genre=ChinesePOP
&cabinet=DX
&version=maimai DX BUDDiES PLUS
&demo_seek=57.5
&demo_len=15.2
&clock_count=4
&des_5=Chalman_JK
&lv_5=13.7
&inote_5=(125){4},,,,{1}7b-1v6b[8:5]/3b-1v4b[8:5],
6b-8v5b[8:5]/3bv8-2b[8:5],
{4}8b,5b,{8}5b,8b,{4}5b,
{8}4b,3b-1v4b[8:3]/7b-1v6[8:3],,3b/7b,,,,,{4}A1,
A2,A3,1pp3b[8:1]/5pp7[8:1],
1/5,{8}8-6b[12:1]/2-4[12:1],1,{4}2/8,{8}4-2b[12:1]/6-8[12:1],5,
{4}4/6,{8}5-7[8:1]*qq5b[6:1],6/4,{2}5-1[8:1],
{4}7b/2b,{8}7v4[8:1]/1v4b[8:1],8,{4}7/1,{8}8v5b[8:1]/2v5[8:1],1,
{4}8/2b-7[8:1],2b/6b-3[8:1],2b/6bq1b[4:1],6b/2b,
2p7[4:1],2b/5,5-8b[12:1],5/7b-2[8:1],
{32}7/E8/2-7[8:1]*-6b[8:1],B8,{16}B1,,,,,,,{8}4,Cf/4bx-6b[12:1]*-6b[12:1],,,3-8[8:1]*-7b[8:1],
2,{4}3,{32}E2/E6,B2,,,,,,,E8/E4,B7,,,,,,,{4}8b-5b[8:1],
4bv1[8:1],{8}Cf/7bv6b[8:1],7b,{4}7b,
{16},,4,6,3,6,2,6,{8}3h[8:1],{16}6,2h[8:1],,,7,1,
{8}8h[8:1],1,{16}8x/1x,8x/1x,8/1x,8x/1xv4v7b[16:5],,,{8}1b/6b,6b,6b,
{16},,3-6[8:1],6,3,6-3[8:1],{8}3,A6,7,7,7,
7b/2,{16}7,6,7,6,{8}7,2b/7,{16}2,3,2pp3[4:1],3,{8}2,
7h[8:1],,,6h[4:1],{4}4h[8:1],{8}7h[4:1],1h[8:1],
{16},,1,8,1,7,1,6,1v3[8:1],5,1,4,{8}1b,5bx,
,5/1,{16}5,1,6,1,7,1,8,1h[16:1],,,{8}7-5b[8:1],
2h[8:1],7,3-1b[8:1],7p6[4:1],3b,7b,{16},,,,1x-7[8:1]*-4[8:1],
5x,1x,5x,{4}1,{16}1-5[12:1],5-1b[48:5],1,5,{8}1,A5,
{16}8bx,3,{8}8,{16}7bx,2,{8}7,{16}6bx,1,{8}6x-2[8:1],6bx,3b,
{16},,A4,E4,{8}E3,{16}E7,E8,{8}A8,{16}A6,C,{8}A2,{16}3x,4x,
2x,6x,5x,7x,2x,1x,2x,7bxp2[16:3],8bx,7bx,8b,7b,,,,,{8}4b,
4b,4bV62[4:1],{16}4,7xh[16:3],,,,,{4}7-4[12:1],
4-7[12:1],7-4[12:1],{8}3,3<6b[8:1],3,3,
{16},,7,8,7,1,7,2,7,3,7,4h[16:3],,,7,3,
7,2,7,1,7,8,7,8,7,1,7,2,,,,,{8}7bx/3-6b[8:1],
3b,{4}3/7b,{8}7-2[8:1],7,{4}7/3b,
{8}7/3b-6[8:1],4,3b/7-2[8:1]*-2[8:1],8,7/3b,{32}3bx,B3f,,,,,,,,,,,{8}1-3[8:1],
1-7[8:1],1,1,4<6[8:1],4>2[8:1],4,4,
{4}7bxv6b[8:1],7b/3bv2b[8:1],3b/7bq8b[16:3],7b/3b,
{8}2b,1/2b-5b[8:1],3b/8,2b/1,1,1v6[8:1],8,1,
2,{16}1x,2x,{8}1x,2-5b[8:1],1v6[8:1],2b,{4}1,
{8}1b-3[8:1]*v4[8:1],2,{4}1,{8}1b-7[8:1]*v6[8:1],8,{4}1w5[16:3],
{2}1bpp5[8:3]*pp5[8:3],{8}7b-1[16:1],7b,{4}7b,
1-5[8:1]*<7-3<5[2:1],{32}1b,B1,C,B5,,,,,{4}1,{32}1b,B1,C,B5,,,,,{8}7b-1[8:1],
3,7b-5[8:1],3,7bv2[6:1]*v4b[6:1],3,{4}7bx-1[12:1]*-5[12:1],
,1z5[8:3]/8s4[8:3],{8},,,,1-4b[8:1],
5v8b[8:1],1x,5x,4x-1b[8:1],1s5b[24:5],,,8bv7b[6:1],
{16}4x,3x,{4}8b,{8}8b-4b[8:1],{16}4-7[8:1],4,{4}8b,
{8}4b-2b[8:1],{16}8,8,{4}4b-8b[8:1],{8}4b<5-2<1-7b[16:5],{16}7,7,{4}4b,
{8},6-8[8:1],1-3[8:1],6,1>4b[8:1],5-8b[12:1],{4}1,
{8}1bx,1bx,{16}1b,8b,1b,8b,1b,8b,1b,8b,{4}1b-4-1b[4:1],
{8}1/7>1[8:1],5/A4,,,2/7>8>1b[8:1],4/5,{16},,,,3,
4-1[8:7],3,4,8b,7b,8b,7bV58-4-1b[8:3],{8}8b,1b,{4}2b,
2bxqq5[16:5],2bx,C,B7/E7/B6/E3/B2/B3,
2/7pp8-5[16:5],7/2qq4b[16:5],2,5q4b[4:1],
{8}5b/1b,1bq8b[4:1],,1b/5b,{4}5bq5b[4:1],{8}1b/5b,1b>3b[12:1],
{16},,1/6x,7,{8}8x,{16}3x/7x-5v4-2b[8:3],6/2x,{8}5x/1x,7bx/2bx,{4}Cf,
{16},,3,7,3,7,{8}3,{16}2,6,2,6,{8}2bxh[8:1],6bxh[8:1],
{16}3<6[8:1],8,3,8,{8}3bx,8bx,{16}8,1,8,1,,,{8}1b,
1b,4bv2<6[8:3],5b,1b,,,,5x,
5x,8v6>2b[8:3],1,5,,Ch[8:1],,,{4}8s4[16:3]/7z3[16:3],
8/7,3x/2x,6/7,
3b/2,7b/6<2[4:1],{2}2b>6b[4:1]*z6[4:1]*>6b[4:1]*>6b[4:1],
{8}A6,6,6-8v5[8:3],6,,B1/E2,{4}B1/E2,
{8}2,2,2-8v3[8:3],2,,E6/B5,{4}B5/E6,
2-7[8:1],2b/6-3b[8:1],{8}6/2b-7b[8:1],2b,{4}2b/6b-3b[8:1],
{8}1,1,1<4[4:1],1,,B1/E1f,{4}E1f/B1,
Ch[4:3],{8}5-7[8:1],6,{4}5,{8}8-6[8:1],7,
{4}8,{8}2v3b[6:1]/6v7b[6:1],3/7,6/2,Cf,{24},,,,,,B8/4-6[8:1],
E8,{12}A7,{24},,,,,,,,B1/5-3[8:1],E2,{12}A2,,{4}6v3b[8:1],
2b-7b[8:1],2b/6b-3b[8:1],2b/6bq1b[4:1],6b/2b,
2p7[4:1],2b/5,5-8b[12:1],5/7b-2[8:1],
{32}7/E8/2-7b[8:1]*-6b[8:1],B8,{16}B1,,,,,,,{8}5,1bx/Cf,{32},,,,,,,,A5/A1,
B2,,,,,,,A5/A1,B2,,,,,,,A4/A8,B7,,,,,,,A4/A8,B7,,,,,,,{4}5b-8b[8:1],
1bv4[8:1],{8}6b/Cf,6,{4}6b<7-3[8:1],
{2}3b>2-6[8:1],{32}E7/E1,B5/B2,,,,,,,B3/B8,E7/E5,,,,,,,{16}3-8[8:1],
4,{8}3,{4}3/7,{16}7-4[8:1],8,{8}7,{4}7/3,
{16}1v2[6:1],1,,8,{4}1,{16}1v3[6:1],1,,7,{4}1,
{16}1x,1x,8x,8x,2x,2x,7x,7x,3-7[8:1]*v6b[8:1],3x,{8}6,{4}3bx,
{16}1x,8,1,8,1x,8,1,8,2b,7,2,7,2x,7,2,7,
3b,6,3,6,3b,6,3,6,4bx,5,4,8,4bx,5,4,8,
4bx,5,{8}4b,4bxh[4:1],6,7pp5[4:1],6,{4}7b/2b,
{16}3b,,,4bx,,,{8}5bx,4b-1b[8:1],B5f,,8,
{4}8-6[8:1]*v5[8:1],8-2[8:1]*v3[8:1],{8},A3f/A2,,1,
{4}1-3[8:1]*v4[8:1],1-7[8:1]*v6[8:1],{8},A6f/A7,,,{4}8-6>5[8:1],
3-1<8[8:1],7<6-4[8:1],4>3-1[8:1],
8-6>5b[8:1],3-1<8b[8:1],7<6-4b[8:1],4>3-1b[8:1],
{8}8-4[8:1],7,8,3b<4-6<7-1b[16:5],,8/3,{4}8,
{8}2-6[8:1],3,2,7b-5>4-2<1[16:5],,2/7b,{4}2,
4v1-3[4:1],4/7b-1v6b[4:1],{8}7b,4b,{4}4bv1-3b[4:1],
{8}4,8,8<5[8:1],5s1[16:3],,2b,{4}2b,
1bh[8:1]/8h[8:1],{8}1b/8,8/1,8/1b-3[8:1],1/7,6/1bv6b[6:1],5,
{4}1b-7b[8:1],1bpp1[4:1],{8}1,7b,{4}7b,
4h[8:1]/5bh[8:1],{8}5b/4,3/6,7b/2,1,1,7,
1/7b,{16}7,1,{8}7b,7,{16}7b,1,{8}7,{4}7b/1V35b[4:1],
1b/7h[8:1],{8}7qq5b[8:1],7,2bpp3[6:1],1b,7,8,
1bh[8:1],7-5b[8:1],1bxh[16:1],7-1b[8:1],,3b/7b,{4}3b>1-6b[4:1],
{8}3b/6<8-3[4:1],5b,5b,5b,7bv5b[8:1],6bh[16:1],7b,4b,
{4}1x/2x,6x/5x,{8}1x<1b[4:3]/3xv1[4:1],3x/1x,{4}1x/3x,
{8},,,,,,,Cf,
{1}5b/4b,
E
