&title=.=EYE=
&artist=Double Face
&first=1.1
&des=Triple Identity
&lv_5=13+
&inote_5=(138)
{1},
{16}
5h[2:7],,,,,,,,,,,,,,,,
,,,,,,,,,,,,,,,,
4,,,,4,,,,4,,,,4,,,,
6,,6,,6,,6,,{24}6-2[12:1],7,8,1,2,3,{16}4/6b,,,,
E5,B4,B3,E3,E7,B6,B5,E5,8V24[8:1],,,5,,,7,,
8,8h[8:1],,5,,,26,,1,1h[8:1],,4,,,37,,
81,,6,5,6,,47,,12,,3,4,3,,25,,
7,8,,12,,3,4,,2q6[8:1],,1,,2x/5,,,,
E1,B8,B7,E7,E3,B2,B1,E1,4V68[8:1],,,1,,,3,,
4,4h[8:1],,1,,,62,,5,5h[8:1],,8,,,73,,
2^7[8:1],,2,,6^3[8:1],,6,,1-5[8:1],,1,,4,,6,,
5bh[8:1]/7bh[8:1],,,1bh[8:1]/8bh[8:1],,,3bh[8:1]/4bh[8:1],,,6bh[8:1]/7bh[8:1],,,1b/2b,,,,
5h[8:1]/7h[8:1],,,,5h[8:1]/8h[8:1],,,,5h[8:1]/6h[8:1],,,,5h[8:1]/7h[8:1],,,,
5h[8:1]/6-8[8:1],,,,5h[8:1]/6,,,,5h[8:1]/7-4[8:1],,,,5h[8:1]/7,,,,
1h[8:1],,4,,1h[8:1],,3,,1h[8:1],,2,,1h[8:1],,3,,
1h[8:1],,3h[8:1],,2h[8:1],,4h[8:1],,1h[8:1],,2h[8:1],,3h[8:1],,4,,
5h[8:1]/6-8[8:1],,,,5h[8:1]/6,,,,5h[8:1]/7-1[8:1],,,,5h[8:1]/7,,,,
5h[8:1]/8-2[8:1],,,,5h[8:1]/8,,,,5h[8:1]/1-5[8:1],,,,15,,,,
4,,3,,2,,1h[4:1],,3,,2,,1,,8h[4:1],,
2,,1,,8,,7h[4:1],,6v1[8:1],,5,,4,,,,
2,,2,,2v5[4:1],,,,5qq2[2:1],,,,,,1,,
1,,,8,,,7pp4[8:3],,7h[4:1],,,,,,,,
,,6,,5,,3,4^7[16:3],,,8,,1,,2,,
3,,4,,5,,6h[8:3],,E8,,E1,,E2,,E3,,
7-1[12:1],,,,5/7-5[12:1],,,,7/4-1[12:1],,,,3^6[12:1]/4,,,,
3/8-4[12:1],,,,8/1-5[12:1],,,,6v1[12:1]*v4[12:1]/1,,,,6,,,,
28,,2,,13,,3,,24,,4,,35,,5,,
7,8,6,1,5,2,4,3,8h[32:3],,{24}5x/7x,4x/6x,3x/5x,2x/4x,,,{24}2x/4x,3x/5x,4x/6x,
{16}5xb-1[12:1]/7xb-3[12:1],,,,57,,,,2v5[12:1]/8v5[12:1],,46,,28,,,,
4pp4[4:1],,1,,8/4b>6[4:1],,7,,6x,,5,5,,4,4,,
3-7[8:1],,2,,1^4[8:1],,8,,17,,A6,E7,A7,E8,A8,,
3-8[8:1],,2,,7-4[8:1],,5,,2-7[8:1],,1,,6-3[8:1],,5,,
7,,8,,1v4[12:1],,2,2,1^6[8:1],,3-7[8:1],,1x,,3x,,
5-2[8:1]*-8[8:1],,,,5b,,,,1h[8:1]/7h[8:1],,,2h[8:1]/6h[8:1],,,35,,
4-8[8:1],,2-6[8:1],,4,,2,,1,,7,5,6,4,5hb[4:1],,
,,8,,34,,26,,1/8h[8:3],,,1x``B1``C``B5``A5,,,{32}1bx,2bx,3bx,4bx,
{16},,56,,47,,38,,{32}1,2,3,4,5,6,7,8,1,2,3,4,5,6,7,8,
{16}1w5[8:1],,,,1b,,,,37,,6,5,,3,4h[4:1],,
,,5-1[8:1],,6,,7^4[8:1],,8,,E2,A2,E3,A3,E4,,
8-4[8:1],,7,,28,,1,,7-3[8:1],,8-4[8:1],,7^4[8:1],,8,,
7,,1,,28,,7,5,6,,34,,A1/A2/E2f,,A7/A8/E8f,,
4hx[4:1],,{32}E3,E2,E1,E8,{16}E7,,,,2hx[8:1]/5xh[8:1],,,4h[8:1]/6h[8:1],,,1<5pp4[8:3]/2,,
,,4,,3,,2,,1,1,,7-4[16:1]/3-8[16:1],,,7xb/3xb,,
,,15,,26,,37,,4h[8:1]/8v3[8:1],,,2h[8:1],,,1,,
,,56,,47,,38,,2,6,2,6,{24}1,5,1,5bw1[8:5],,,
{16},,,,,,,,,,,,,,,,
3qq8[2:3]/7qq4[2:3],,,,,,,,,,,,,,,,
,,,,,,,,,,,,,,,,
2q3[4:3]/6q7[4:3],,,,,,,,,,,,,,,,
,,,,45,,,,36,,,,27,,,,
18,,3,4,3,,2,,1,,6,5,6,,7^4[8:1],,
,,3,,2,,1,,7h[8:1]/8h[8:1],,,,1h[8:1]/6h[8:1],,,,
25,,6,5,6,,7,,8,,3,4,3,,2^5[8:1],,
,,6,,7,,8,,1-5[8:1],,7-3[8:1],,1x,,7x,,
2,,3,4,3,,1,,7,,6,5,6,,8qq5[8:3],,
,,4,,3,,2,,1,,7,8,7,,1bh[4:1]/5bh[4:1],,
,,,,26,,37,,4b^1[16:1]/8,,,4bx^7[16:1],,,4bx,,
,,1x,,26,,37,,{32}8,7,6,5,4,3,2,1,8,7,6,5,4,3,2,1,
{16}8w4[8:1],,,,8b,,,,62,,3,3,6,6,5h[4:1],,
1,,4-8[8:1],,3,,2^5[8:1],,1,,E8,A7,E7,A6,E6,,
1-5[8:1],,6,6,1,,8,,7^2[8:1],,1,1,7-4[8:1],,5,5,
7,,8,,71,,2,4,3,,65,,A8/A7/E8f,,A2/A1/E2f,,
5hx[4:1],,{32}E7,E8,E1,E2,{16}E3,,,,7hx[8:1]/4xh[8:1],,,5h[8:1]/3h[8:1],,,8>4qq5[8:3]/7,,
,,5,,6,,7,,8,8,,2-5[16:1]/6-1[16:1],,,2xb/6xb,,
,,84,,73,,62,,5h[8:3]/1bv6[16:1],,,1b,,,{32}1b,2xb,3xb,4xb,
{16},,43,,52,,61,,7,8,7,8,{32}7,6,5,4,3,2,1,8,
{16}7h[2:1]/3h[2:1],,,,,,,,,,,,{32}A3,E4,E5,E6,A6,,,,
{16}
8,7,6,5,2,3,4,5,1V75[8:1],,,4,,,2,,
8,8h[8:1],,5,,,26,,1,1h[8:1],,4,,,37,,
81,,6,5,7,,48,,12,,3,4,2,,15,,
7,8,,56,,3,4,,7V53[8:1]/1,,6,,7x/5,,,,
1,2,3,4,7,6,5,4,8V24[8:1],,,5,,,7,,
1,1h[8:1],,4,,,73,,8,8h[8:1],,5,,,62,,
2^7[8:1],,2,,6^3[8:1],,6,,1-5[8:1],,1,,4,,6,,
3xb,4,3,6xb,5,6,3xb,4,2-6[8:1]b,6xb,5,7,2xb-4-8-6>7[1:2],,,,
5h[16:30],,,,,,,,,,,,,,,,,,,,,,,,,,,,,,,,
