&title=Burning Flame
&artist=AJURIKA feat.SAK.
&first=-0.01
&des=Soxps
&lv_5=14
&inote_5=(165)
{1},
{32}2>1[4:2]/8b,3,4h[16:11],,,,,,{4},,,
{32}4b/8<1[4:2],7,6h[16:11],,,,,,{4},,,
{16}8b/7h[8:1],,,3b/4h[8:1],,,2b/1h[8:1],,,5b/6h[8:1],,,7b/4,,8,8,
{16}1b,,2b,,3b,,4b,,35,,2-6[8:1]/6,,17,,2,,
{16}8b,,8,,75,,6,5,,5,7h[8:1],,8,,1,,
{16}26,,2,,35,,3,4,3v8[8:1],4,2h[8:1],,,,,,
{16}17,,7,,56,,6,5,,5,7h[8:1],,8,,8,7,
{16}1-5[12:1],1,,6,6,,7-3[12:1],7,,8,8,,1b,,,,
{16}2b/4,,2,,35,,6,4,,4,7h[8:1],,8,1,2,3,
{16}46,,6,,68,,8,7,8-4[8:1],7,1h[8:1],,,,,,
{16}35,,2,4,2,,7,5,6,4,5,3,6,2,7,1,
{16}8b-4[16:1],,,2b-6[16:1]/8,,,7b-3[16:1]/2,,,1bw5[16:1]/7,,,1b,,,,
{8}3/7,3h[4:1]/7,,5,4-1[8:1],,2h[8:1],,
{8},3h[4:1]/8,,4,5-1[8:1],,56,,
{16}7,,7,,78,,7,,57,,6,5,,5,7h[8:1],,
{16}5,6,4,6,5,6h[8:1],,7,7-3[8:1],,8,,1b,,,,
{16}24,,5h[4:1],,,,6,,6-2[8:1],,,,7h[8:1],,,,
{16},,75,,6-2[8:1],,5,,4-7[8:1],,,,8<1[8:5],,,,
{16}1h[8:1],,,,3h[8:1],,,,5h[8:1],,,,4,,3,,
{16}2b/6h[8:1],,,1b/5h[8:1],,,8b/4,,1-4[32:3]/5-8[32:3],,26,,1b/5b,,,,
{16}56,,56,,47,,6,5,7h[8:1],,4,6h[8:1],,3,5,2,
{16}4h[8:1],,2,1h[8:1],,2,1,,3-1[12:1]/8-4[32:3],,,,3/8,,,,
{16}7h[4:1],,8,,5h[4:1],,6,,7h[8:1],,8,,16,,2,,
{16}3-5[32:3],,3,,6-2[8:1],,6,,1,,,,3b/7,,,,
{16}34,,34,,2,1,2,1,2h[8:1],,4,3h[8:1],,5,4,6,
{16}5h[8:1],,7,8h[8:1],,7,8,,1-5[32:3]/6-1[12:1],,,,16,,,,
{16}2h[4:1],,1,,4h[4:1],,3,,2h[8:1],,1,,38,,3,4,
{16}2h[8:1],,6,5,7h[8:1],,8,7,2,6,3,4,1b,,1b,,
{8}3/7-4[8:1],,3,,5-1[8:1]/3,,3,,8<3[4:2]/3,,3,,2,,1,,
{8}5/8-3[8:1],,5,,4-8[8:1]/5,,5,,
{8}16,2,34,5,46,7,18,2,
{8}3h[8:1]/7,,3,4,3h[8:1]/4-1[8:1],,3,,
{8}3h[8:1]/7p1[4:2],,3h[8:1],,4h[8:1],,5h[8:1],,
{8}8h[8:1]/6-2[8:1],,7h[8:1],,6h[8:1]/8-4[8:1],,5h[8:1],,
{8}3,3,24,24,15,15,{16}15,26,37,48,
{16}5b/1h[8:1],,,4b/8h[8:1],,,3b/7h[8:1],,,2b/6h[8:1],,,1b-4[32:3]/5-8[32:3],,48,,
{16}1b/5b,,,,2-6[8:1]/6,,,,12,,8,,57,,3,4,
{16}3b,,2-6[8:1]/5,,1,,2/8,,,,7,,57,,3,4,
{16}3,,2-4[8:1]*-6[8:1]/5,,1,,2,,,,57,,8h[4:1],,,,
{16}2b,,6,5,7h[8:1],,2,4,1h[8:1],,8,,7,,6-1[8:1]/5-2[8:1],,
{16},,56,,,,7-3[8:1]/3,,,,78,,1b,,,,
{16}24,,1,,2-5[8:1],4,3,4,2<7[8:1],,6,,2,,5,,
{16}14,,2,,6-1[8:1],5,7,5,6>3[8:1],,2,,6,,8,,
{16}17,,6,,25,,2,4,1,,6,5,7,,57,,
{16}4,6,3,5,2,4,1,5,2,6,3,7,{32}4,5,6,7,8,1,2,3,
{16}4/8b-4[8:1],,,,38,,2h[4:1],,,,5,,46,,7,8,
{16}6V84[4:1],,,,68,,1,,2-4[32:3]*-6[23:3],,,,2,,,,
{16}5/7-3[8:1],,8,,17,,2-6[8:1],,,,4-8[8:1]/2,,,,5>7[8:3]/4,,
{16},,2h[4:1]/5,,,,,,3v6[8:1],,4,,5,,,,
{16}7b/8,,78,,6v1[8:1],1,7,4,6>3[8:1],,5,,68,,8,,
{16}25,,25,,3v8[8:1],8,2,5,3<6[8:1],,4,,13,,1,,
{16}4/7h[8:1],,5,7,1,8,2,4,3,6,5,7,3,4,1bw5[8:1],,
{16},,1b,,,,3>8[8:1]/7,,,,{24}3b/7b,6,5,4w8[8:1],,,,,,
{16}4b,,,,25,,3,4,,4,2,,3/5-8[8:1],,6,,
{16}7h[4:1]/5,,,,1,,6,5,8-3[8:1],5,7,,5w1[8:1]/8,,,,
{16}5,,,,47,,6,5,,5,7,,46,,3,,
{16}2b-5[12:1],2,,8,8,,7-3[12:1],7,,4,4,,1b,,,,
{16}24,,3,,45,,3,5,,5,2h[8:1],,1,8,7,6,
{16}35,,3,,13,,2,1,2-6[8:1],1,3,,82,,,,
{16}5b/7h[8:1],,4,5,3h[8:1],,5,4,7,,{24}87,,,1,6,1,6,1,6,
{16}1b-5[16:1],,,7b-4[16:1]/1,,,2b-6[16:1]/7,,,8bw4[16:1]/2,,,8b,,,,
{8}2bp4[8:3]/6q4[8:3],,,,,,,25,
{16}3h[8:1]/4h[8:1],,,3h[8:1]/4h[8:1],,,1h[8:3]/5,,,,,,8,,,,
{16}7bq5[8:3]/3p5[8:3],,,,,,,,,,,,,,47,,
{16}5h[8:1]/6h[8:1],,,5h[8:1]/6h[8:1],,,8/4,,{24}7b,6,5,48,,,2qq5[4:3]/6,,,,,,
{8}2/4h[8:1],,5h[8:1],,6h[8:1],,7qq1[4:3],,
{8}7/8h[8:1],,1h[8:1],,2h[8:1],,3,4,
{16}5/8h[16:1],,5/8h[16:1],,4/7h[16:1],,4/7h[16:1],,3/6h[16:1],,36,,{24}4,5,4,5,4,5,
{16}3b/6,,,,,,,,1-4[8:1]/5-8[8:1],,26,,1b/5b,,,,
{16}3b>8[8:1]/7,,6,6,3-5[32:3],,7,7,3-7[8:1],,6,,35,,6,,
{16}5b<8[8:1]/1,,2,2,5,,3,,1<6[8:1]/4>2[32:3],,5,,14,,,,
{16}1b/5,,3,4,1h[8:1],,6,5,8-4[8:1],,5<3[8:3],,8,,5,,
{16},,5h[8:1],,,,6,,7-3[8:1]/4,,58,,7b,,,,
{16}2b/4,,1,1,7<4[8:1],8,5,1,7V15[32:7],,2,2,7,,3,,
{16}4b,,8,8,2<7[8:1],1,3,4,2V48[32:7],,5,5,2,,7,,
{16}6,6,1,5,2,2,{24}4b,5,6,8,1,2,5b/3,6,7,1,2,3,4/6b,7,8,
{24}2,3,4,{32}5/7b,8,1,2,3,4,5,6,7b-3[12:1]/8b-3[12:1],,,,,,,,7bqq3[32:19]/8bqq3[32:19],,,,,,,,,,,,
{4},,E
