&title=ハートの確率
&artist=blue drops
&first=0
&des=Sakurago
&wholebpm=157
&lv_5=11
&inote_5=(157.00)
{8},,,,,,,,
{8},,,,2,,6,,
{8}4qq4[8:6]*pp4[8:6],,,,,,,,
{8},,,,7,,2,,
{8}3qq5[8:6]/6pp4[8:6],,,,,,,,
{8},,,,1h[8:2]/8h[8:2],,,,
{8}7p5[8:4]/2,,2,,2,,2,,
{8}2/6,,3/7,,4/8-6[8:1],,8/3,,
{8}1-3[8:1]/5h[8:2],,,,6,4,6V84[8:3],5,
{8},2b,2b,,1bw5[8:1],,,,
{8}3/7-4[8:1],,2,,3,5,4/6,7,
{8}8-6[8:1]/1-5[8:1],,8/1,,1-3[8:1]/8-4[8:1],,8/1,,
{8}6h[8:2]/2>5[8:1],,,,7,6,5/4,3,
{8}2-4[8:1]/1-5[8:1],,2/1,,1-7[8:1]/2-6[8:1],,1/2,,
{8}5h[8:2]/8-5[8:1],,,,3/4,5,2/6,1,
{8}7-5[8:1]/8-4[8:1],,7/8,,8-2[8:1]/7-3[8:1],,8/7,,
{8}1h[8:2]/4h[8:2],,,,{16}2/6,,,3/7,,,4/8z4[8:4],,
{8}3b,3b,3b,3b,,,,,
{8}6h[8:16],,2,,3,3,,4qq5[8:4],
{8},,,,,,,,
{8}4h[8:16],,8,,7,7,,6pp5[8:4],
{8},,,,,,,,
{8}7h[8:16],,1,,2,2,,3qq5[8:4],
{8},,,,,,,,
{8}4h[8:7],,6,,8,8h[8:2],,,
{8},3b/7b,3b/7b,,,1b/5b,1b/5b,,
{8}7-5[8:1],,3,,7-4[8:1],2,2,,
{8}7-5[8:1],,3,,7-4[8:1],1,1,,
{8}2-4[8:1],,6,,2-5[8:1],7,7,,
{8}2-4[8:1],,6,,2-5[8:1],8,8,,
{8}7<5[8:1],,4,,7p3[8:1],2,2,,
{8}7<5[8:1],,4,,7p3[8:1],1,1,,
{8}2>4[8:1],,5,,2q6[8:1],7,7,,
{8}4b/8b,4b/8b,,2bv4[8:1]/6bv4[8:1],,,,,
{8}3h[8:2]/8-5[8:1],,,,2/4,3,5/4,6q5[8:3]/5,
{8},3,3,,1-3[8:1]*-7[8:1],,1,,
{8}6h[8:2]/2>5[8:1],,,,4/7,6,5/4,3p4[8:3]/4,
{8},6,6,,8>3[8:1]*<5[8:1],,8,,
{8}2h[8:2]/4h[8:2],,,3/7p3[8:1],,1,1,,
{8}4h[8:2]/8h[8:2],,,6/2q6[8:1],,8,8,,
{8}7/5,6,7/5,,4/8,3/7,2/6,1V35[8:2]/5,
{8},7b,7bs3[8:2]*z3[8:2],,,,,,
{8}2/8,1,3/4,2-4[8:1]/5,,2/8-6[8:1],,1>5[16:3]/8,
{8},7,7,,6h[8:1]/8p3[8:2],,1,2,
{8}2v5[8:1],,2/7,7<4[8:1],,3/7,,1v4[8:1]*v6[8:1],
{8},1,,,2/5,3,4/7,6,
{8}2h[8:1]/5h[8:1],,3/7,3V15[8:2]/7,,6V84[8:2]/3,,6,
{8},1,1pp5[8:4],,6h[8:1],,7h[8:1],,
{8}8-4[8:1]*-6[8:1],,8,,2/5,3,4/7,4/7p4[8:3],
{8},2,2,,1p5[8:1]*q5[8:1],,1b,,
{8}2h[8:1]/6h[8:1],,4/8,4qq4[8:2]/8,,4pp4[8:2]/7h[8:2],,,
{8},8,8,,1/2,3,4/5,6,
{8}4h[8:1]/7h[8:1],,3/5,3qq5[8:3]/5,,6pp4[8:3]/3b,,6b,
{8},2b,,,1h[8:1]/3h[8:1],,6h[8:1]/8h[8:1],,
{8}7<4[8:1]/4,3,2,1,8>3[8:1]/3,4,5,6,
{8}7-5[8:1],8-4[8:1],7,8,1-5[8:1],2-4[8:1],1,2,
{8}7-3[8:1],7,8-4[8:1],8,1-5[8:1],1,2qq6[8:4],2,
{8},4,4,,7bw3[8:1],,,,
{8},1b/2b,3b/4b,5b/6b,7b/8b,,,,,
E
