&title=666
&artist=RoughSketch
&first=0.2
&des=H6(5+1)N6
&des_5=H6(5+1)N6
&lv_5=14+
&inote_5=(333)
{1},
{8}A6,E6,E5,A4,A8,E1,E2,A2,A7,B7,C,B3,A1,B1,C,B5,A8,E8,E7,A6,A2,E3,E4,A4,D8,D7,D6,D5,D1,D2,D3,D4,
{8}E8,B8,B1,E2,E4,B4,B5,E6,E7,B7,B8,E1,E3,B3,B4,E5,E1,E8,E7,E6,E2,E3,E4,E5,D1,D8,D7,D6,D5,D4,D3,D2,
{4}D1/4bh[4:15],8x,8x,8x,7,7,7,7,6,6,6,6,5,5,5,5,
{8}4,5,4,5,4,5,4,5,3,6,3,6,3,6,3,6,2,7,2,7,1,8,1,8,3,6,1,8,2h[4:1]/7h[4:1],,,,
{16}1b/8b,,,,1b/8b,,,,2,3,4,5h[16:3],,,6,,2,1,8,7h[16:3],,,6,,2,3,4,5h[16:3],,,6,,
{16}4b/7b,,,,4b/7b,,,,7,8,1,2h[16:3],,,5,,5b-1[8:1],,,,,,,,8,,8,,8,,,,
{8}2b/7b,,1,1,5,5,3,3,7,7,5,5,8,8,2,2,6,6,4,4,8,8,2,2,7b,,5b/6b,,3b/4b,,1b/2b,,
{8}7b/8b,,1,5,1,5,1,5,2,6,2,6,
{24}3,4,5,,,,7,,,7h[4:1],,,2,3,4,,,,6h[4:1],,,1,2,3,,,,5h[4:1],,,8,1,2,,,,
{4}6b,7b/8b,1b/2b,3b/4b,
{24}4b/7b,,,,,,6,,,5,,,8,,,1,,,4,,,3h[4:1],,,7,6,5,,,,2,,,1,,,4,,,5,,,8,,,7,,,
{24}2,,,2,,,4,,,4,,,1,,,1h[4:1],,,7,6,5,,,,
{6}2b,4b,3b,7b,5b,6b,
{16}1b,,,,7,,7,,3,4,3,,5,,5,,1,,1,,7,,7,,2,,2h[8:3],,,,8,,8b<1[4:3],,,,,,,,,,,,,,,,5-1b[8:1],,,,,,,,7,,6,,5b,,,,
{4}2-4[8:1],1-5[8:1],8-4[8:1],7-5[8:1],8-4[8:1],1-5[8:1],2-4[8:1],8-6[8:1],1-5[8:1],8-4[8:1],1-3[8:1],7-5[8:1],8-4[8:1],7,7/3,6/2,
{4}7-5[8:1],8-4[8:1],1-5[8:1],2-4[8:1],1-5[8:1],8-4[8:1],
{6}7,7,7,
{24}6h[4:1],,,,,,8,1,2,3,4,5h[12:5],
{8},6,,7,8-6[8:1],,,5-3[8:1],,,
{16}1,8,7,6,5b-1b[8:1]/1b-5[8:1],,,,,,,,
{4}2-4[8:1],1-5[8:1],8-4[8:1],7-5[8:1],8-4[8:1],1-5[8:1],2-4[8:1],8-6[8:1],1-5[8:1],8,
{8}2,1,2,1h[4:1],,3-7b[8:1],,8,
{4},3-1[8:1],5-7[8:1],4-8[8:1],,6-8[8:1],4-2[8:1],5-1[8:1],
{8}4h[4:1],,8,3h[4:1],,7,1<7v2>3-6>4[1:1],,,,,,,,,,
{4}Ch[4:1],,1>1[2:1],,C,,2x,3x,
{8}4,5,6,7,
{12}8,1,2,3,4,5,1-5[8:1],,,,,,3b/7b,,,,,,
{8}2b/6b,,,,4,5,5,5,C,5,5,5,3,5,5,5,B7,5,5,5,4,5,5,5,B2,5,5,5,3,5,5,5,
{8}2z6[4:1],,,,8bx,,,,5,4,4,4,6,4,4,4,C,4,4,4,5,4,4,4,
{4}6b-8[8:1],4b-2[8:1],5b-1[8:1],4b,
{8}3b,,,2b/6b,,,1b/7b,,
{8}2,8,8,8,C,8,8,8,1,8,8,8,E3,8,8,8,2b,8,1b,8,8,8,8,8,
{8}1>4[8:1],,6,,7,5,6,4,5h[2:1],,B1/B2/E2,,3h[2:1],,C,,
{8}8<5[8:1],,3,,2,4,3,5,4h[2:1],,B8/B7/E8,,6h[2:1],,C,,
{12}1,2,3,4,5,6,7/3h,8,1,2,3,4,5/1xh[1:0],6,7,8,1,2,3/7h,4,5,6,7,8,
{12}5h/1,4,3,2,1,8,7/3h,6,5,4,3,2,1/5xh[1:0],8,7,6,5,4,3/7h,2,1,8,7,6,
{12}1h/5,8,7,6,5,4,3/7h,2,1,8,7,6,5/1xh[1:0],4,3,2,1,8,7/3h,6,5,4,3,2,
{12}5h/1,6,7,8,1,2,3/7h,4,5,6,7,8,
{4}1b/5b,3b/7b,2b/6b,4b/8b,
{12}8,7,6,5,4,3,2/6h,1,8,7,6,5,4/8xh[1:0],3,2,1,8,7,6/2h,5,4,3,2,1,
{12}4h/8,5,6,7,8,1,2/6h,3,4,5,6,7,8/4xh[1:0],1,2,3,4,5,6/2h,7,8,1,2,3,
{12}8h/4,1,2,3,4,5,6/2h,7,8,1,2,3,4/8xh[1:0],5,6,7,8,1,2/6h,3,4,5,6,7,
{12}4h/8,3,2,1,8,7,6/2h,5,4,3,2,1,8/4xh[1:0],7,6,5,4,3,2/6h,1,8,7,6,5,
{4}4pp2[2:13]/8pp6b[2:13],,,,,,,,,,,,,,,,,,,,,,,,,,,,,,,,
{4}Ch[4:15]/2,2,2,2,3,3,3,3,4,4,4,4,5,5,5,5,
{8}4,6,4,6,4,6qq1b[8:9],4,6,,,,,,,,,2,,3,,4,,3-6b[2:1],,3,,,,Cf,,,,
{16}2bx/6bx,,,,2bx/6bx<1[16:3],,,,2,3,4,5,2,3,4,5,6bx,,,,2bx/6bx<1[16:3],,,,2,3,4,5,2,3,4,5,6bx,,,,2bx/6bx<1[16:3],,,,2,3,4,5,2,3,4,5,
{4}2b/6b,4b-1[8:1]/8b-5b[8:1],4b/8b,,
{16}7bx/3bx,,,,7bx/3bx>8[16:3],,,,7,6,5,4,7,6,5,4,3bx,,,,7bx/3bx>8[16:3],,,,7,6,5,4,7,6,5,4,3bx,,,,7bx/3bx>8[16:3],,,,7,6,5,4,7,6,5,4,
{4}7b/3b,5b-8[8:1]/1b-4b[8:1],5b/1b,,
{4}2-5V38[2:3],7,7,7,6,6,6,6,5V73-6-1[2:3],1,1,1,2,2,3,3,
{8}4,8,4,8,3,7,3,7,2,6,2,6,1,5,1,5,
{32}D1f,E1f,B1f/B8f,Cf,E5f,D5f,,,,,,,,,,,,,,,,,,,,,,,,,,,
{4},,,,E5,E6,E4,C,2,7,
{8}1b,8b,1b,8b,
{8}2b-6[8:1],,5-8b[8:1],,2,2,4,3,7-5[8:1],,8-4[8:1],,1-5b[8:1],,2-4b[8:1],,
{8}7-3[8:1],,1-4b[8:1],,7,7,5,6,2-4[8:1],,1-5[8:1],,8-4b[8:1],,7-5b[8:1],,
{8}2-6[8:1],,7-1b[8:1],,3,3,4,2,5<7[8:1],,4q8[8:1],,5p1b[8:1],,4>2b[8:1],,
{8}7b,,6,5,8,1,4,3,4-6[8:1],,3-7b[8:1],,2-8[8:1],,5b,,
{8}Chf[4:1],,1b,8b,1b-3[8:1],,7-5[8:1],,8-4b[8:1],,8x<5[8:1],,8x>3[8:1],,8x,,
{8}7xh[4:1],,1,1,4,3,6,5,8,8,2,2,
{6}3x/7x,3x/7x,3x/7x,
{8}2,2,6,6,2v5[8:1],,6v1b[8:1],,4,,4x-7[8:1],,6h[4:1],,
{16}8,1,2,3,
{8}4>1[8:1]/8,,4x<7[8:1],,4x-1[8:1],,4x,,6xqq1b[2:1],,,,2h[8:1],,
{24}3x,4x,3x,4x,3x,4x,
{8}2bx,1,4,5,8,7,4,5,
{16}2,,8,,2,3,4,,7,,1,,7,6,5,,
{8}8,7,1,6,8,7,2,5,
{12}3,4,3,4,3,4,2,5,2,5,2,5,
{16}3/7<4[8:1],,,,3x-7[8:1],2,1,8,C,,,,2-5[8:1],,,,6-1[8:1],,,,3-8b[8:1],,,,7-4b[8:1],,,,2,,,,
{8}3/6,,1b,8b,1bpp4[1:1],8b,1b,,6b,6b,6b,,5b,5b,5bh[8:1],,
{16}6/2>5[8:1],,,,6x-2[8:1],7,8,1,C,,,,8,,,,3,,1,,3s7[8:3],,1,,,,,,,,,,
{8}1b/8b,,2,2,4,4,3,3,6,6,6z2[8:3],,,,,,
{8}1/8,,2,1,
{48}3,E4,B4,B5,E6,,1,,,,,,2,,,,,,,,,,,,
{8}8/1,,7,8,
{48}6,E6,B5,B4,E4,,8,,,,,,7,,,,,,,,,,,,
{48}1,,,,,,8,,,,,,2x,E3,B3,B4,E5,,7x,E7,B6,B5,E5,,1,,,,,,8,,,,,,1x,E2,B2,B3,E4,,8x,E8,B7,B6,E6,,
{4}Chf[2:1],,B1/B2/B3/B4/B5/B6/B7/B8,,
{8}6b,6b,6b,6b,6b,6b,6b,6b,6b,6b,6b,6b,6b,6b,6b,6b,6b,6b,6b,6b,6b,6b,6b,6b,6b,,7b/8b,,8b/1b,,1b/2b,,
{8}3b,3b,3b,3b,3b,3b,3b,3b,3b,3b,3b,3b,3b,3b,3b,3b,
{16}2bx/4bx,,,,2bx/4bx,,,,3,4,5,6h[16:3],,,8,,3,2,1,8h[16:3],,,5,,2,3,4,5h[16:3],,,8,,
{32}8bx,1/7,2b/6bqq1b[4:3],3/5,4b,
