&title=String Theocracy (game size)
&artist=Mili
&first=0
&des=LTCalter
&clock_count=4
&lv_5=13+
&inote_5=(232)
{1},,
{8},,,,,,,,
{12}5,,3,4,,2,,,6,5,,4,5q7[8:4],,,,,,,,,,,,
4,,6,5,,7,,,3,4,,5,4q1[8:3],,,,,,,,,,,,
2h[12:3],,,4,,2,,,1-5[8:2],,,,6,,,7,,,8h[8:2],,,2,,,
7,,4,6,,,2h[12:5],,4,,,4,
2,,6,5,,3,4,,7,5,,,
4,,6,5,,7,,,3,4,,5,4V62[8:4],,,,,,,,,,,,
5,,3,4,,2,,,6,5,,4,5V38[8:4],,,,,,,,,,,,
7h[12:3],,,5,,7,,,1,17,,64,,,2,5,4,7,1,,
(464)8,,
(232)2b^5[8:1],,,12,,,7^4[8:1],,,87,,,
2^5[8:1],,,1,,8-4[8:1],,,2,2,,,
1-5[8:1],,,6,,,8-4[8:1],,,2,,,
3,,3,4,,4,5,,5,6,,6,
7^2[8:1],,,4,,,3^6[8:1],,,8,,,
1-6[8:1],,1,3,,2,2h[8:2],,,4,,,
3-5[8:1],,,7-4[8:1],,,2-6[8:1],,,8-4[8:1],,,
1,,1-5[8:1],,,17,,,6,6,,,
7v4[8:1]/1,,,78,,,2v5[8:1],,,21,,,
7-4[8:1],,,8,,1q5[8:1],,,7,7,,,
8-4[8:1],,,3,,,1-5[8:1],,,7,,,
6,,6,5,,5,4,,4,3,,3,
2^7[8:1],,,5,,,6^3[8:1],,,1,,,
8-3[8:1],,8,6,,7,7h[8:2],,,5,,,
6-4[8:1],,,2-5[8:1],,,7-3[8:1],,,1-5[8:1],,,
8,,8h[8:2],,,2,,,4h[12:1]/6h[12:1],,,,
1-7[8:1],,,7,,,6,,,2-6[8:1],,,6,,,5,,,
3-5[8:1],,,6,,,7,,,4^1[8:1],,,8^5[8:1],,,4,,,
3h[8:4],,,2,,,8,,,6q3[8:2],,,5,,,4,,,
25,,,74,,,2,4,3,7,5,6,2,7,1,8h[8:4],,,,,,
{24}1bv6[8:1],2,3,4,,,
{12}1,,,2,,8-4[8:1],8,,3-1[8:1],3,,5-7[8:1],5,,8,8h[8:2],,4>7[8:2],
4,,,,,,3pp5[16:3],,,8,,7,7h[8:2],,,1,,2,8,,3,5h[8:2],,,
4>7[8:2],,5,5,,,6v3[8:1],,,3,,1h[8:2],,,4,2-4[8:1],,,4-8[8:1],,,8,,,
6h[8:2],,,8,,1/7,,,2-7[8:1],,,7-3[8:1]*-4[8:1],,,,,,,2,1,2,7,8,7,
{24}1b-5[8:1],,,,,,
{12}17,,,6,,7-2[8:1],7,,4-1[8:1],4,,8-5[8:1],8,,2,2-6[8:1],,,
4-7[8:1]*-1[8:1],,,,,,6qq4[16:3],,,2,,1,,,7bs3[8:2]/8,,,,1,,1-5[8:1],,,7,7,,,
28,,,{8}3h[8:1],4h[8:1],5h[8:1],6h[8:1],7,8<3[8:2],{12},,1,1h[12:2],,,1,,6,4,,5,
7h[12:2],,8,6h[12:2],,4,8V61[8:2],,,1,,3-5[8:1],,,6,6h[8:2],,,1pp5[8:4],,,
7,,6<5[8:13],,,,,,,,,,,,,,,,,,,,,,,,,
64,,6h[12:3]/4h[12:3],,,,3h[12:2],,8,2h[6:1],,5,
1h[6:1],,7,7-3[8:1],,,2<3[8:13],,,6pp1[8:11],,,,,,,,,,,,,,,,,,,,,,,,,
{24}
{12}8,7,6,2,4,3,5,4,5,3,4,3,4,4,4s8[8:4]*V62[8:4],,,,,,,,,,,,
1,,7,5,,3,4,,6,5,,2,4,,7,1,,8,2,,5-1[8:1],3,,2q7[8:5],
,,,,,,6qq3[8:10],,,,,,1<3[8:6],,,,,,,,,,,,,,,
8,,6,5,,3,4,,7,5,,2,4,,8,5,,1,4V62[8:6],,3s7[12:7],
,,,,,,,,,,,,1h[6:1]/8h[6:1],,,,,,53,,,2,,,
1-7[8:1],,7h[12:1],,,6,5,,,2-6[8:1],,6h[12:1],,,5,4,,,
3-5[8:1],,5h[12:1],,,6,7,,,2-6[8:1],,,6-2[8:1],,,,,,
{8}8-4[8:1],,1,2,3,,4qq5[32:15],,5,,7,,{12}8,,,84,,,26,,
3,24,,6,57,,1,28,,7,7bpp4[8:10],,,,,,,,,,,,,,,1,,,3,,,2,,,
1p3[8:6],,,,,,7,,,,,5p8[8:5]*p1[8:5],,,,,,,,,,,,,
27,,,3V52[8:5],,,,,,,,8<3[8:7],,,,,,,,,,,,,8^3[8:3],,,,,5-1[8:2],,,,,,,
7-3[8:2],,,,,,5qq3[8:3],,,,,,8^5[8:7],,,,,,,,,,,1^4[8:7],,,,,,,,,,,,,6q1[8:7],,,
,,,,,,,,2^5[8:7],,,,,,,,,,,,,8qq8[8:10]*pp8[8:10],,,,,,,,,,,,,,,,,,,,,,,,
7^2[8:12]/2v4[8:12],,,,,,,,,,,,,,,,,,,,,,,,,,2h[24:11]/6h[24:11],,,,,,
{24}5bV74[1:5]/3bV14[1:5],
