&title=電脳ロリポップ
&artist=周防パトラ
&first=0.045
&des=萝莉大爆发
&lv_5=13+
&inote_5=(200){4},,,,,,{8}5h[8:1],4,6h[8:1],4,
{4}7pp5[2:1],5,3,{8}2,1>5[8:3],
,5,{4}6,{8}7,8pp5[2:1],,4,
{4},3,2>6[8:3],{8}6,7,
,8,{4}1q5[4:1],{2}5q1[4:1],
{4}3h[4:1],8<4[8:3],{8}4,3,,1q3[2:1],
,5,{4}6,{8}7,8-5[8:1],,8b/4b,
,4-1[8:1],5,4b,,6,6,2,
2,7,7,1,{16}1,2,3,4,{8}5-1[8:1],8,
{4}5,7<4[8:1],{8}3,3-8[8:1],,4,
,5,6,7,{16}1,2,3,4,{4}5/8<5[8:1],
4,2q5[8:3],{8}5,6,7,8h[4:1],
,6,5,4,{16}3v5[8:1],2,1,8,{4},1-4[8:1],
4qq5[8:3],{8}5,6,7,8h[4:1],
,4,3,2,{16}8,7,6,5,{4}4/1>4[8:1],
5,7qq4[8:3],{8}4,3,2,1h[4:1],
,5,6,7,{16}1,2,3,4,{8}5w1[8:1],7,
{1}5b<5[1:2],,5<5[1:2]*v8[4:3],,5<1[1:1],
{4}1q5[4:1],5q1[4:1],1q4[1:1],2q4[4:3],
{1},{8},4h[8:1],,3/5,{4}3/5,{16}4,5,4,5,
{4}4b-2[8:1],7,{8}5-7[8:1],5,{4}2,
4-2[8:1],7,{8}5-7[8:1],5,{4}2-4[8:1],
8,7-5[8:1],{8}1,1,{4}2-4[8:1],
8,7-5[8:1],{8}1,1,{4}2-4[8:1],
8,7v4[4:1],{8}1,2,{4}3<6[4:1],
6<1[4:1],1>3[4:1],3<6[4:1],6<3[2:1]*q3[2:1],,,,4h[8:5],
{8}6,6,6,6,3/6,3/6,3/6,3/6,
3<6[4:1],{4},{8}6,7,{4},{8}6>3[4:1],
,3,{4}2,1-4[8:1],4,
{8}6v3[4:1],{4},{8}4,{4}4-2[4:1],2-8[4:1],
8-6[4:1],6-4[4:1],{2}4v2[4:1],
{4}6>3[4:1],3,2V46[4:1],{8}1,1,
,8,{4}8-5[8:1],{2}5pp4[8:3],
{8}3b,3b,,4/2,{4}4/2,{8}7b,7b,
,8/3,{4}3/8,{8}2,1,2,1,2,2,8,2,2,7,2,2,
{16}6,5,4,3,2,1,8,7,6,5,4,3,2qq4[8:3],1,8,7,
{4}6/2b,5>2[4:1],{8}6,7,8,1s5[8:3],
,2,2,2,2,1b-4[8:1],,5,
,6,{4}7p5[8:3],{8}4,3,2,1q4[8:3],
,5,6,7,{4}8-5[8:1]*-3[8:1],8,
4-8[8:1],5/4pp1[8:3],{8}1,2,3,4qq8[8:3],
,8,7,6,5,5b-8[8:1],,1,
,1-4[8:1],8,1b,,7,7,3,
3,6,6,{16}2,1,8,7,6,5,{8}4/7pp5[8:3],7,
{4}7,4<7[4:1],{8}3,2,1,8z4[8:3],
,7,7,7,7,8b-5[8:1],,4,
,3,{4}2q4[8:3],{8}5,6,7,8p5[8:3],
,4,3,2,{16}1,2,3,4,{4}5bw1[8:1],
,3qq3[4:1],7h[8:1]/3pp3[4:1],7h[8:1],
{8},8<4[4:1],8,3,2,1b-4[8:1],,6,
,5-8[8:1],3,5b,,2,2,6,
6,3,3,7,7,4,{16}5,4,3,2,
{8}1-5[8:1],1,7<4[16:3],7,{16}3,2,1,8,7,6,5,4,
{8}3-8[8:1],3,6<1[16:3],6,{16}2,3,4,5,6,7,8,1,
{8}2/7-3[8:1],7,1>4[16:3],1,{16}5,6,7,8,1,2,3,4,
{8}5,{16}3,4,{8}2,{16}5,4,{8}7,{16}3,4,{4}1b-5[8:1],
{8}6-2[8:1],6,4>1[16:3],4,{16}8,7,6,5,4,3,2,1,
{8}8-4[8:1],8,2>5[16:3],2,{16}6,7,8,1,2,3,4,5,
{8}6/3,{16}4,5,{8}3,{16}6,5,{8}7,7/5,6/4,3/5,
4/2,{16}1,2,{8}3,{16}5,6,{8}7,{16}3,2,{8}1-5[8:1],{16}7,6,
{1}5/1bpp2[1:3]*qq8[1:3],,,,{4}3/6pp1[2:3],
3,3,3,3,3,3,3,
3/2qq7[2:3],3,3,3,3,3,3,3,
{8}4b,4b,,5/3,{4}5/3,{8}7b,7b,
,6/8,{4}6/8q8[8:3],{8}1,2,{4}3,
{8}4b,4b,,5b/7b,{4}5b/7b,{8}4,3,
2,1,8<8[2:1]*p7[2:1],7,{4},,,6h[384:1],
,5h[384:1],,4h[384:1],,3h[384:1],,2h[384:1],,1h[384:1],,8h[384:1],,7h[384:1],,6h[384:1],,5h[384:1],
,4h[384:1],,{8}3h[384:1],1V35[4:1],
,4,6,8V64[4:1],,5,3,1,
1,1,{16}1,2,3,4,5,6,7,8,1,2,3,4,
{4}5/6b-2[8:1],5>1[4:1],{8}1<1[8:5],8,7,6,
,1<1[8:5],8,7,6,5b-8[8:1],,,
,7,{4}6pp1[8:3],{8}1,2,3,4qq8[8:3],
,8,7,6,{4}5p8[8:1]*q2[8:1],5,
3/7,6pp6[4:1],2h[8:1]/6qq6[4:1],2h[8:1],
{8},1>5[4:1],1,6,7,8b-5[8:1],,3,
,4-1[8:1],6,4b,,6,6,2,
2,7,7,{16}3,4,5,6,7,8,{8}1-4[8:1],2,
{4}1/4<8[4:1],8>4[4:1],{8}5,6,7,8qq6[16:3],
,4,3,2,{16}7,1,7,1,{4}8b-5[8:1],
5>1[4:1],1<5[4:1],{8}4,3,2,1pp3[16:3],
,5,6,7,{16}2,8,2,8,{4}1-7[8:1]*-6[8:1],
1b-3[8:1]*-4[8:1],1,{8}1,8,7,6pp8[16:3],
,2,3,4,{16}7,5,7,5,{8}6b,4,
2b,{16}3,4,{8}5,{16}7,6,{8}5,{16}2,3,{8}4,8v5[8:1],
,1,2,{16}3,7,3,7,3,7,{8}4-8[8:1],8,
{1}4bqq4[1:1]*pp4[1:1],
E
