&title=雲雀
&artist=ASCA
&first=0
&des=MYOU
&des_5=MYOU
&lv_5=13
&inote_5=(112){1},{4}7h[4:1],
{8}5,4,{4}3h[4:1],{8}1,8,
7qq5[16:3],6,{4}5<3[4:1],,{8}8,1,
{4}2h[4:1],{8}4,5,{4}6h[4:1],{8}8,1,
2qq8[16:3],3,4,5,{2}6>3[8:1]*p2[8:1],
{4}1<6[32:5],2,8>3[32:5],{8}7,6,
{4}5p4[16:5],3h[4:1],,{8}5,6,
{4}7/5>2[32:5],6,4<7[32:5],{8}3,2,
{4}1p8[16:5],7h[4:1],,{8}8,1,
{4}8/2p6[32:5],4h[4:1],{2}5>2[8:1]*<8[8:1],
{4}3/7p3[32:5],{8}2,1,8<5[8:1]*>3[8:1],7,{4},4q8[32:5],
3h[4:1],{2}1q5[32:5]*-4[32:5],
{4}3V52[8:3]/6V47[8:3],{2},{8}8,1,
{4}4/2-6[8:1],5<8[8:1],1-5[8:1],{8}8,7,
{4}4>1[8:1]/6<1[8:1],4qq5[16:5],,{8}8,7,
{4}5/6-2[8:1],{8}1>4[8:1],1,{4}5-1[8:1],3<2[8:3],
{2}3h[2:1],{4}4-8[8:1],{8}4/3,2,
{4}1-5[8:1]/7,{8}12,3,{4}4-8[8:1]*-7[8:1]/6,4-1[8:1],
7h[4:1],{8}3V17[6:1],4/6,{4}5-7[8:1]*-3[8:1],5-1[32:5],
1<4[4:1],4pp3[4:1],{8}1h[4:1],{4},{8}1/2,
{4}8/3V16[16:3],6V84[16:3],{8}4b>1[8:1],5b,6b,7b,
8/7v1[8:1],6/1-3[8:1],{4}4V68[32:5],4,{8}1/2qq8[8:1],3/8<6[8:1],
{4}5>1[32:5],5,{8}7/8,1/6h[8:1],5,1/2,
{4}8/3qq4[4:1],{8}4<7[8:1],5,{4}6pp5[4:1],{8}5>6[16:5],4p6[16:3],
{2}3,1/5pp7[8:1]*qq3[8:1],
{8}6/5v7[8:1],4/7-1[8:1],{4}2V46[32:5],2,{8}3/4qq2[8:1],5/2<8[8:1],
{4}7<3[32:5],7,{8}1/2,8/3h[8:1],4,7/8,
{4}1/6V84[16:3],{8}4V61[16:3],3,{4}2V48[16:3],{8}8>7[16:5]*<1[16:5],7,
{2},8/4qq2[8:1]*pp6[8:1],
{8}5/3v6[8:1],2/6v1[8:1],{4}8V64[32:5],8,{8}8/2q7[8:1],3/7q4[8:1],
{4}5<1[32:5],5,{8}4/3,5/1h[8:1],8,6/5,
{4}3/7qq8[4:1],{8}8>3[8:1],1,{4}2pp1[4:1],{8}1<2[16:5],8,
{2}7p6[4:1],{8}3h[8:1],4h[8:1],5h[8:1],6h[8:1],
{4}8>3[8:1],8h[8:1],4<7[8:1],4-8[8:1],
{2}4<7[8:1]*>1[8:1],{8}7h[8:1],5h[8:1],4h[8:1],2h[8:1],
{4}1<6[8:1]*p5[8:1],1,4>1[8:1]*p8[8:1],4pp7[16:5],
{2}2h[4:1],1p4[8:1]/5<8[8:1],
{4}1>4[8:1],1h[8:1],5<8[8:1],5-1[8:1],
{2}5qq5[16:3]*pp5[16:3],{8}6h[8:1],5h[8:1],4h[8:1],3h[8:1],
{2}1b>4[8:1]*q5[8:1],7b<4[8:1]/8bp3[8:1],
{8}1/2,8/3,{4}4>1[8:1]/7<4[8:1],4q8[8:1],1>7[4:1],
7<1[8:3]*q1[8:3],{2},{8}1,2,
4/3,5/2,{4}1/6q3[16:3],3pp6[8:3],8>3[8:1],
8b,{32}5,4,{16}3,,{32}1s5[16:3],8,{4}7,{8}5,6,
7/8,6/1,{4}2>5[8:1]/5<8[8:1],5p1[8:1],8<2[4:1],
2>8[8:3]*pp8[8:3],{2},{8}8,7,
6/5,7/4,{4}8/3p6[16:3],6qq3[8:3],1<6[8:1],
1b,{32}4,5,{16}6,,{32}8s4[16:3],1,{4}2,{8}1,1,
{4}1/5-1[8:5]*-1[8:5],3h[8:1],4h[8:1],5h[8:1],
{8}8/4,7/3,2pp1[16:5]/6pp5[16:5],5/1,{2},{4}8/7h[4:1],
{8}5,4,{4}4/3h[4:1],{8}1,8,
7/8>5[4:1],6,{4}5qq1[8:3]*<7[8:1],,{8}7,8,
{4}1/2h[4:1],{8}4,5,{4}5/6h[4:1],{8}8,1,
1/2,3,4q6[4:1],5,{2}6<4[32:9],
{4}1h[4:1],{8}4,5,{4}6/5h[4:1],{8}8,1,
8/2,3pp4[8:1]/7qq6[8:1],{4}4>1[32:5]/6<1[32:5],,{8}7/1,6/2,
{32}3/5pp3[4:5],4qq6[32:39],
