&title=SAN值直葬
&artist=STEAKA
&first=0.08
&lv_5=13+
&des=mmfc13
&freemsg=STEAKA
&wholebpm=168
&inote_5=(168){1},{16}
6-3[8:1],,,,4,,,,2/4,,,3/4,,,4/5-7[8:1],,,,
2,,,2xh[16:3],,,3h[16:3],,,4h[16:3],,,5,,
3-6[8:1]/6,,,,5,,,,5/7,,,5/6,,,4/5s1[8:5],,{1}4z8[2:1]/5,{8}
7-5[8:1],7,4,,7-4[8:1],7,3,,2-5[8:1],5-2[8:1],,,7-4[8:1]*-3[8:1],,,,
2-4[8:1],2,5,,2-5[8:1],2,6,,7,3,5/2-6[8:1],6-3-5[4:1],7,,,,
8-5[8:1],8,4,,7-4[8:1],7,3,,2-6[8:1],6-2[8:1],,,8-4[8:1]*-3[8:1],,,,
2-5[8:1],2,6,,3-6[8:1],3,8,,7/5,,2/4,,1-5[8:1]/8-4[8:1],,8b/1b,,
3<5[8:1],3,6,7,2>5[8:1],2,7,8,
3-6[8:1],6-2-5[4:1],7,,8-5[8:1]*-4[8:1],,8x,,{16}
6-4[8:1],,2,,6x-1[8:1],,3,,6x,,4,4,8,,3/7,,
2,,4,,1-6[8:1]/5,,6-2-5[4:1],,{4}7,,{8}
6>4[8:1],6,3,2,7<4[8:1],7,2,1,2>6[8:1],6<2[8:1],2,,{32}
,E3,E4,E5,E6,E7,E8,E1,E2,E3,E4,E5,E6,E7,E8,E1,{1}Cf,{4}
7bx-3b[8:1]/1bx,2bx-6b[8:1]/7bx,2bx/8bxw4b[8:1],,{16}
2x,4,2,4,3x,5,3,5,2x-5[8:1],,,,2x/8,,,,
6x,4,6,4,6x,5,6,5,7x-4-7[4:1],,,,7x/1,,,,
3-8[8:1]*-7[8:1],,3x,,,,,,1-5[8:1]/6-8[8:1],,1x/6x,,,,,,
4,,6,5,7,,7,,8x-5[8:1]/4x-1[8:1],,3x/7x,,4x/8x,,,,
2x,4,2,4,3,5,3,5,2-5b[8:1],4,3,,,,,,
6,4,6,4,6,5,6,5,7-4-7b[4:1],5,6,,,,,,{8}
2-4[8:1],2,8-6[8:1],8,1-5[8:1],,,,6b,,8b/7,,1-6[8:1]*-5[8:1]/2b,,1b,,{16}
4x-7[8:1]/7x-4[8:1],,,,,,,,3-5[8:1],,8,8,3,,,,
7,,4,5,3<6[8:1],4,2,,6>3b[8:1],,,,,,,,
8,,3,3,5,,2,,1-5[8:1],,7/8,,,,,,
7,,3,3,5,,2,,{24}1/6x,5x,4x,,,,1/6x,5x,4x,,,,{16}
2-6[8:1]/6-2[8:1],,,,,,,,7-5[8:1],,3,3,7,,,,
2,,5,4,6>3[8:1],5,7,,3<6b[8:1],,,,,,,,
1,,6,6,4,,7,,8-3[8:1],,3-7[8:1],,,,,,
4,,6,6,1,,5,,3-6[8:1]/7-2[8:1],,,,3b/7b,,,,{1}
8-2>3-7V16-4[2:3],{8},,,A3,,,A2,,{1}
1V36<7-4-8-3[2:3],{8},,,A7,,,A6,,{8}
4x/5x,,3-5[8:1],3h[4:1],,,2-5[8:1],2h[4:1],,,1z5[4:1],1h[4:1],,,,,
3/7,,8-3[8:1],8h[4:1],,,7,7-3[8:1],,6,6,4,2-5[8:1]/5-8[8:1],,2x/5x,,{4}
7bx,7/4b,7/6b,7/1b,3b-6[8:1]/7,3b/7-3-8-4[8:3],,,
2b,2/5b,2/3b,2/8b,2-6b[8:1]/5b,2/6b-1-5-2b[8:3],,,{8}
8,8,3,3,5,5,2,2,3/4,5,6/4,3,2/4,6,4/7,3,{16}
2b,8,2,8,1-5[8:1],7,1,7,1b,,,,6bv7-1[4:3],,5bs1[8:5],,{1},{4}
A7h[32:11]/D7h[32:15]/B7h[32:17]/E7h[32:13]/A3h[32:12]/D3h[32:16]/B3h[32:18]/E3h[32:14],,,{32}A3,D4,A4,D5,A5,D6,A6,,,,,,{16}8x,,,{48}8x,,,,,,,{24},{16}
7h[8:1]/A4h[8:3]/E5h[16:15]/E4h[2:3]/B4h[16:33],,,7h[8:1],,,7,,,
8h[8:1],,,8h[8:1],,,8,,,1h[8:1],,,1h[8:1],,,1,,,
2h[8:1],,,2h[8:1],,,2,,,{8}1-6[8:1],1x,1xb,,{32}
E2,B2,B3,B4,E5,,{16}7,7h[16:3],,,6h[16:3],,,5,,2b/8b,,,,{32}
E7,B6,B5,B4,E4,,{16}1,1h[8:1],,,2h[8:1]/8h[8:1],,,3/7z3[2:1],,{2}
3z7[8:3]/7,{8},,,{16}8-4[8:1],,,,3,,3,,5,,4/6,,7,5,,2,4,,{4}
1-4[8:1],1x/5x,1-6[8:1],1x/5x,1>4[8:1],1x<6[8:1],1-5[8:1],1x,
7-4[8:1]*-5[8:1],7x,3-8[8:1]*-1[8:1],3x,{8}
7-4[8:1],4-7-3[4:1],7x,,1-5[8:1],,1x,,
8-3[8:1],,8x/4x,,8-5[8:1]/4,,8x/3x,,
4-1[8:1],,8x-5[8:1],7,6,,6x<5[4:1],6h[4:1],,,6x<5b[4:1],6h[4:1],,,
7x,7,8-5[8:1],,4x-1[8:1]/8x,,7x-3[8:1]/4x,,7x/8x,,{4}
2-4[8:1]/4-1[8:1],2-6[8:1]/4,8-4[8:1]/2-4[8:1],2/8,
5<3[4:1],4,4>6[4:1],5,4-1[8:1]*-2[8:1],4,8-5[8:1]*-6[8:1],8,{8}
2-5[8:1],5-2-6[4:1],2,,8-4[8:1],,8,,
1-5[8:1]/5-7[8:1],,1>4[8:1]/5,,1v6[8:1]*p5[8:1],,1,,
4>1[8:1],,8q5[8:1],7,6,,6<5b[4:1],6h[4:1],,,
6<7>8>1>2>3<4<5b[4:1],6h[4:1],,,6,6,B3/A3/E3/D3/7,,E7/B6/2,,E4/7,,1b/8b,,
2>5[8:1]/8,,2,1,8-4[8:1],,2-6-3[4:1]/8,,7,7,8,3x,2-5[8:1]/6-1[8:1],,2/6,,
4>7[4:1],,7>4[4:1],6,5-8[8:1],,5,,
7x-4[8:1],4-8-3[4:1],7,3,2h[8:3],,{16}1x,8,7,6,{8}
5b/1bV38[4:1],,7,6,5pp4[4:1],,
2/5,,3-1[8:1],2,5-7[8:1],6,8-3[8:1]*-4[8:1],,8,,
2>6[4:1]/5,,6<5[16:7],7,8,,6,7,
8-6b[8:1]*-5b[8:1],,8-2b[8:1]*-3b[8:1],,8-6b[8:1]*-5b[8:1],,8,,
3/4<8[16:3],,4,3,2-6[8:1],,1V74[4:1]/2,,4,3,2,5,1v4[8:1]/7v4[8:1],,1/7,,
3>6[4:1]/5,,6<3[4:1],5,4-8[8:1],,4,,
1-5[8:1],5-2-6[4:1],1,6,7h[8:3],,{16}8x,1,2,3,{8}
4b/8bV27[4:1],,5,4,3qq4[4:1],,
3/5,,7<4[8:1],8,2-6[8:1],1,8w4[8:1],,8,,
1/7<3b[4:1],,3>4b[16:7],2,1,,3,2,
1b-5[8:1],,1b-3[8:1]/7b-3[8:1],,1b-5[8:1]/7b-5[8:1],,1b/7b,,{64}
3,4,,,,,,,{8},{64}4,5,,,,,,,{8},{64}3,4,,,,,,,{8},{64}
5,6,,,,,,,{8},{64}3,4,,,,,,,{8},{64}4,5,,,,,,,{8},{64}
5x,6x,,,,,,,,,,,4x,5x,,,,,,,,,,,3x,4x,,,,,,,{64}
2,1,,,,,,,{8},{64}1,8,,,,,,,{8},{64}2,1,,,,,,,{8},{64}
1,8,,,,,,,{8},{64}8,7,,,,,,,{8},{64}1,8,,,,,,,{8},{64}
2x,1x,,,,,,,,,,,3x,8x,,,,,,,,,,,4x,7x,,,,,,,{64}
5h[64:1],6,,,,,,,{8},{64}4h[64:1],7,,,,,,,{8},{64}3h[64:1],4,,,,,,,{8},{64}
1h[64:1],6,,,,,,,{8},{64}5h[64:1],6,,,,,,,{8},{64}2h[64:1],8,,,,,,,{8},{64}
3h[64:1],4,,,,,,,,,,,5h[64:1],6,,,,,,,,,,,1h[64:1],8,,,,,,,{32}
7bx,6x,5x,,,,1bx,2x,3x,,,,8b,,,,2bx,3x,4x,,,,8bx,7x,6x,,,,1b,,,,
7bx,6x,5x,4x,,,8bx,1x,2x,3x,,,7b,,,,
8xb/4xb,,,,,,2xb-7[16:1]/6xb-3[16:1],,,,,,2bx/6bx,,,,
E
