&title=Sendan Life(Katagiri Bootleg)
&artist=かたぎり,花守ゆみり
&first=-0.153
&des=楓
&lv_5=14
&inote_5=(260)
{1},Ch[2:7],,,,
{4}4bx/3bx,4x/2x,
{8}4x/1x,
{4}4x/1x,4x/8x,4x/7x,4x/6x,
{8}6hx[8:1],4x,,
{4}5bx/6bx,5x/7x,
{8}5x/8x,
{4}5x/8x,5x/1x,5x/2x,5hx[8:1]/3x,
{8}3hx[8:1],5b,,
{4}3x/5x-7[8:1],3,3/8-6[8:1],3,
{4}3/5-7[8:1],3,3/8-6[8:1],3,
{4}6x/4x-2[8:1],6,6/1-3[8:1],6,
{4}6/4-2[8:1],6,6/1-3[8:1],6,
{4}2x/8x-6[8:1],2,2/5-7[8:1],2,
{4}2/8-6[8:1],2,2/5-7[8:1],2,
{4}7x/1x-3[8:1],7,7/4-2[8:1],7,
{8}A1/D2,A8/D8,B1/B2,B8/B7,B4/B3,B5/B6,A4/D4,A5/D6,
{4}Cf,
{8}3x>1[8:1],,4,4,,8,8z4[2:1],,5,5,,,6,,
{8},4,3,5,6,3,2,6,7v4<6[2:1],,4,4,,,3h[8:1],,
{4},3>8[4:1],8<5[4:1],5-2[4:1],2-7[4:1],
{8}7x-4-1[2:1],7x,,6x,,5x,
{4},8>3[8:1],8<5[8:1],8,
{8}2-6V48[2:1],,8,,7h[8:1],,7b,,
{8},,5<7[4:1],,4,,4,,8s4[2:1],,3,3,,2,,1,
{8},5,6,4,3,6,7,3,2v5>3[2:1],,5,5,,,6h[8:1],,
{4},6<1[4:1],1>4[4:1],4-7[4:1],7-2[4:1],
{8}2x-5-8[2:1],2x,,,4x,4x,
{8},1x-4[8:1],1x,,5x-8[8:1],5x,,
{8}1x>7[8:7],,B7,B6,B5,B4,B3,B2,B1,
{1}D1f,
{2},
{4}1,1h[2:1],,5<7-3>1[4:5],,4,,,8,8-4[1:1],
{4},,4,4-1[1:1],,,1,1-5b[2:1],,,,
{4}8<5[2:1],8,,4,,
{4}3h[8:1],3h[8:1],3h[8:1]/5h[8:1],3h[8:1]/5h[8:1],
{4}6h[8:1],6h[8:1],6h[8:1]/4h[8:1],6h[8:1]/4h[8:1],
{4}2h[8:1],2h[8:1],2h[8:1]/8h[8:1],2h[8:1]/8h[8:1],
{4}7h[8:1],7h[8:1],7h[8:1]/1h[8:1],7h[8:1]/1h[8:1],
{8}4x,4,8,8,3x,3,7,7,2x,2,6,6,1x,1,5,5,
{16}8x,6,8,6,8x,6,8,6,
{16}2hx[32:1],3h[32:1],4h[32:1],5h[32:1],6hx[32:1],7h[32:1],8h[32:1],1h[32:1],
{4}2x/Chf[4:1],,6hbx[8:1]/3hbx[8:1],6b/3b,
{4}1-6[8:1]/2-5[8:1],1b/2b,8-3[8:1]/7-4[8:1],8b/7b,
{8}2x-6[8:1],2x,,8,
{4}8-4b[8:1],8/4b,
{4}3-8[8:1],3b/5,6-1[8:1],6b/4,
{8}3-7[8:1],3,,6,
{4}6>3b[8:1],6b,
{4}1>5[4:1],5<1b[4:1],1>5[4:1],5,
{8}7-3[16:3],,,2-6[16:3],,,
{4}8p4p8[2:1],,Cf,,1hb[8:5],,5h[8:1],
{16}8bx,7,6,5,4bx/8bx,37,26,,
{4}8x-3[8:1]/7x-4[8:1],8b/7b,1-6[8:1]/2-5[8:1],1b/2b,
{8}7x-3[8:1],7x,,1,
{4}1-5b[8:1],1/5b,
{4}6-1[8:1],6b/4,3-8[8:1],3b/5,
{8}6-2[8:1],6,,3,
{4}3<6b[8:1],3b,
{4}8b<4[4:1],4>8b[4:1],8b<4[4:1],4>8b[4:1],8b<4[4:1],4>8b[4:1],8b,4h[8:1],
{8}5x,5,6x,6,7x,7,8x,8,
{16}1x,2x,1x,,
{8}3x,3x,
{8}5x/4x,6x/3x,7b/2b,,
{4}3h[8:1],3h[8:1]/4h[8:1],3h[8:1],3h[8:1]/B6/E7,
{4}3h[8:1],3h[8:1]/5h[8:1],3h[8:1],3h[8:1]/B7/B8,
{4}6h[8:1],6h[8:1]/5h[8:1],6h[8:1],6h[8:1]/B2/B1,
{4}6h[8:1],6h[8:1]/4h[8:1],6h[8:1],6h[8:1]/B3/E3,
{4}2h[8:1],2h[8:1]/1h[8:1],2h[8:1],2h[8:1]/B7/E7,
{4}2h[8:1],2h[8:1]/8h[8:1],2h[8:1],2h[8:1]/B6/B5,
{4}7h[8:1],7h[8:1]/8h[8:1],7h[8:1],7h[8:1]/B2/E3,
{8}A4/D4,A5/D6,B4/B3,B5/B6,B1/B2,B8/B7,A1/D2,A8/D8,
{1}Cf,
{8}35,,,35,,,3h[4:1]/5h[8:1],,
{1},
{8}64,,,64,,,6/4h[8:1],,
{4}6x<1[4:3],E3,,E5,
{4}5>2[4:3],E1,,E7,
{4}4<7[4:3],E1,,E3,
{4}3xz7[2:1],,
{2},
{4}2x/8x-6[8:1],2,2/5-7[8:1],2,
{4}2/8-6[8:1],2,2/5-7[8:1],2,
{4}7x/1x-3[8:1],7,7/4-2[8:1],7,
{4}7/1-3[8:1],7,7/4-2[8:1],7,
{4}3x/5x-7[8:1],3,3/8-6[8:1],3,
{4}3/5-7[8:1],3,3/8-6[8:1],3,
{4}6x/4x-2[8:1],6,6/1-3[8:1],6,
{8}B8/E1,5x,B2/E2,5x,A7/E7,5x,A3/E4,5x,
{1}Cf,
{4},,,,
{4}3/5h[8:1],B1/E2,3h[8:1]/5,B7/E7,
{4}3/5h[8:1],B1/E2,3h[8:1]/5,B7/E7,
{4}4/6h[8:1],B2/E3,4h[8:1]/6,B8/E8,
{4}4/6h[8:1],B2/E3,4h[8:1]/6,B8/E8,
{4}3/5h[8:1],A1/E2,3h[8:1]/5,A7/E7,
{4}3/5h[8:1],A1/E2,5b/3b,,
{4}4h[8:1],4h[8:1],4h[8:1]/6h[8:1],4h[8:1]/6h[8:1],
{4}5h[8:1],5h[8:1],5h[8:1]/3h[8:1],5h[8:1]/3h[8:1],
{4}1h[8:1],1h[8:1],1h[8:1]/7h[8:1],1h[8:1]/7h[8:1],
{4}8h[8:1],8h[8:1],8h[8:1]/2h[8:1],8h[8:1]/2h[8:1],
{8}5x,5,1,1,6x,6,2,2,7x,7,3,3,8x,8,4,4,
{16}1x,3,1,3,1x,3,1,3,
{16}7hx[32:1],6h[32:1],5h[32:1],4h[32:1],3hx[32:1],2h[32:1],1h[32:1],8h[32:1],
{4}7hbx[4:1]/Chf[4:1],,3hbx[8:1]/6hbx[8:1],3b/6b,
{4}6x-1[8:1],6b/4,3-8[8:1],3b/5,
{8}6-2[8:1],6,,3,
{4}3<6b[8:1],3b,
{4}8-3[8:1]/7-4[8:1],8b/7b,1-6[8:1]/2-5[8:1],1b/2b,
{8}7x-3[8:1],7x,,1,
{4}1-5b[8:1],1/5b,
{4}8<4[4:1],4>8b[4:1],8<4[4:1],4,
{8}2-6[16:3],,,7-3[16:3],,,
{4}1q5q1[2:1],,Cf,,7hb[8:5],,3h[8:1],
{16}8bx,1,2,3,4bx/8bx,51,62,,
{4}3x-8[8:1],3b/5,6-1[8:1],6b/4,
{8}3-7[8:1],3,,6,
{4}6>3b[8:1],6b,
{4}1-6[8:1]/2-5[8:1],1b/2b,8-3[8:1]/7-4[8:1],8b/7b,
{8}2x-6[8:1],2x,,8,
{4}8-4b[8:1],8/4b,
{4}1b>5[4:1],5<1b[4:1],1b>5[4:1],5<1b[4:1],1b>5[4:1],5<1b[4:1],1b,5h[8:1],
{8}4x,4,3x,3,2x,2,1x,1,
{16}8x,7x,8x,,
{8}6x,6x,
{8}4x/5x,3x/6x,2b/7b,,
{8}1x,8,3,6,2,7,4,5,
{8}E2,E8,A3,A6,A2,A7,E4,E6,
{8}4,5,2,7,3,6,1,8,
{8}E4,E6,A2,A7,A3,A6,E2,E8,
{8}1x,8,3,6,2,7,4,5,
{8}E2,E8,A3,A6,A2,A7,E4,E6,
{8}4,5,2,7,3,6,1,8,
{8}E4/B4,E6/B5,A2/B2,A7/B7,A3/B3,A6/B6,E2/B1,E8/B8,
{8}1x,1,3,3,5x,5,7,7,
{8}E3,E2,E7,E8,A3,B2,A6,B7,
{8}4x,4,2,2,8x,8,6,6,
{8}E3,E4,E7,E6,A2,B3,A7,B6,
{8}1x,1,3,3,5x,5,7,7,
{8}E3,E2,E7,E8,A3,B2,A6,B7,
{8}4x,4,2,2,8x,8,6,6,
{8}E4/B4,A2/B2,E6/B5,A7/B7,A3/B3,E2/B1,A6/B6,E8/B8,
{4}5hbx[8:3]/4hbx[2:1],,,5b/4b,
{1},
{1}3>6[1:2],,
{1}6pp2[1:2],,
{1}2>7[1:2],,
{1}7>2[4:5],,
{4}5p7[4:3],,A6,7xp1[4:3],,,1,,
{4}3p5[4:3],,A4,5xp7[4:3],,,7,,
{4}1p3[4:3],,A2,3xp5[4:3],,,5,,
{4}3-8[4:3],,8,8-5-2-7[2:3],
{2},Ch[1:1],
{1},
{4}1-6[8:1]/2-5[8:1],1b/2b,8-3[8:1]/7-4[8:1],8b/7b,
{8}2x-6[8:1],2x,,8,
{4}8-4b[8:1],8/4b,
{4}3-8[8:1],3b/5,6-1[8:1],6b/4,
{8}3-7[8:1],3,,6,
{4}6>3b[8:1],6b,
{4}1>5b[4:1],5<1[4:1],1>5b[4:1],5,
{8}7-3[16:3],,,2-6[16:3],,,
{4}8p4p8[2:1],,Cf,,1hb[8:5],,5h[8:1],
{16}8bx,7,6,5,4bx/8bx,37,26,,
{4}8x-3[8:1]/7x-4[8:1],8b/7b,1-6[8:1]/2-5[8:1],1b/2b,
{8}7x-3[8:1],7x,,1,
{4}1-5b[8:1],1/5b,
{4}6-1[8:1],6b/4,3-8[8:1],3b/5,
{8}6-2[8:1],6,,3,
{4}3<6b[8:1],3b,
{4}8b<4b[4:1],4>8[4:1],8b<4b[4:1],4>8[4:1],8b<4b[4:1],4>8[4:1],8b,4h[8:1],
{8}5x,5,6x,6,7x,7,8x,8,
{16}1x,2x,1x,,
{8}3x,3x,
{8}5x/4x,6x/3x,7b/2b,,
{4}3h[8:1],3h[8:1]/4h[8:1],3h[8:1],3h[8:1]/B6/E7,
{4}3h[8:1],3h[8:1]/5h[8:1],3h[8:1],3h[8:1]/B7/B8,
{4}6h[8:1],6h[8:1]/5h[8:1],6h[8:1],6h[8:1]/B2/B1,
{4}6h[8:1],6h[8:1]/4h[8:1],6h[8:1],6h[8:1]/B3/E3,
{4}2h[8:1],2h[8:1]/1h[8:1],2h[8:1],2h[8:1]/B7/E7,
{4}2h[8:1],2h[8:1]/8h[8:1],2h[8:1],2h[8:1]/B6/B5,
{4}7h[8:1],7h[8:1]/8h[8:1],7h[8:1],7h[8:1]/B2/E3,
{8}B3/E4,8x,B5/E5,8x,A2/E2,8x,A6/E7,8x,
{8}1x-3[8:1],4,1-7[8:1],6,1-3[8:1],4,1-7[8:1],6,1-3[8:1],4,1,6,
{32}1b,8,7,,4,,,,1b,2,3,,6,,,,
{8}8x-6[8:1],5,8-2[8:1],3,8-6[8:1],5,8-2[8:1],3,8-6[8:1],5,8,3,
{32}8b,1,2,,5,,,,8b,7,6,,3,,,,
{8}2x-4[8:1],5,2-8[8:1],7,2-4[8:1],5,2-8[8:1],7,2-4[8:1],5,2,7,
{32}2b,1,8,,5,,,,2b,3,4,,7,,,,
{8}5x-3[8:1],5x-7[8:1],5x-2[8:1],5x-8[8:1],5x-1b[8:1],5x,5x,,
{16}3bx,5x,4x,,
{8}1bx/7x,3/5b,2x/8bx,6/4b,3xv8b[8:1]/7bxv4[8:1],1b/5,
{16}3b/7b,Cf,
