&title=AttraqtiA
&artist=かめりあ
&first=0
&des=cc-v affected by "A&C"
&lv_5=14+
&inote_5=(202)
{8},,,,,3,4,5,
{8}6b-8>1-3<4-7[8:12]/3b,,,4,,4,,5h[16:20],,,,,,,,,
{8}6,6v1-7-4[32:43],,3,,2-8-6-4[32:26],,,,,,,,,,,
{8}3-1<8-6>5-2[8:12]/6,,,5,,5,,4h[16:20],,,,,,,,,
{8}3,3v1>2-5[16:12],,5,,6,,7,,8x,8xz4b[32:9],8x,,,,,
{8}3x/5x,2-4[8:1],,2x/6x,7-4[8:1],,3x/7x,2-5[8:1],,2x/7x,8-4[8:1],,3x/8x,2-8[8:1],,2x/6x,7-4[8:1],,7x/3x,2-7[8:1],,6x/2x,5-8[8:1],,5x/1x,2-5[8:1],,1x/2x,6w2[8:1],,6x,,
{16}8x,4,8,,8x,3,8,,8x,2,8,,8x,1,8,,
1x,8,1,,1x,7,1,,1x,6,1,,1x,5,1,,
{8}2/4x,2/5x,2/6x,2x/7x,7/3x,4x/7,5x/7,{24}6x,5x,4x,2hx[8:1],,,7x,6x,5x,3hx[8:1],,,8x,7x,6x,5x/1x-5[8:1],,,,,,,,,,,,
{16}7b/A3/D4/D
3/E2/E3f/E4/B3/B2/A2/D2,,,,5h[8:1],,4h[8:1],,6h[8:1],,5b-3[8:1]*-8[32:4],,,,,,,,1,,82,,,,7h[8:1]/5h[8:1],,,6h[8:1]/5h[8:1],,,E8f/4b,,
,,1,,2/4,,3-8[8:1],,6,,7-4[8:1],,,,,,,,38,,65,,,,2h[8:1]/4h[8:1],,,3h[8:1]/5h[8:1],,,2,,
8b/B3f,,,,4x/7x,,6x,,5x,,4x/7x,,,,18,,,,3h[8:1]/4,,,6h[8:1]/5<6<7>8>1>2>3b[32:10],,,8bx,,,,,,Cf,,
,,7^4[8:1],,8,,1h[8:2]/7bx,,,,8^5[8:1],,1,,8bx/2h[8:2],,,,1^6[8:1],,2,,1bx/3h[8:2],,,,4,,52,,,,
E8f/B8/B7/A8/A7/D8/D1/D7/3b,,,,4h[8:1],,6h[8:1],,2h[8:1],,4b-6[8:1]*-1[32:4],,,,,,,,8,,17,,,,2h[8:1]/4h[8:1],,,3h[8:1]/4h[8:1],,,E2f/5b,,
,,8,,7/5,,6v4[8:1],,3,,2v8[8:1],,,,,,,,71,,26,,,,7h[8:1]/5h[8:1],,,6h[8:1]/4h[8:1],,,73,,
Ch[8:1],,,,A1/A8/E1f/D1/E8/E2/D8/D2,,,,2hx[8:1]/4x,,,5x/7hx[8:1],,,3^8[8:1],,,,5,,5^4^2^1^7^6b[8:3],,,,1bx,,,,,,Cf,,
,,2^5[8:1],,1,,8h[8:2]/2bx,,,,1^4[8:1],,8,,1bx/7h[8:2],,,,8^3[8:1],,7,,8bx/6h[8:2],,,,5,,47,,,,
{32}1bx/2bx,3x/8x,4x/7x,5x/6x-4-7-3-5-8[32:45],,,,,{16},,,,1h[8:10],,,,,,,,,,,,,,,,,,,,,,,,
{32}2bx/1bx,3x/8x,4x/7x,5x/6x-3-5-7[32:20],,,,,{16},,,,2h[8:2],,,,,,,,{24}2x,,,D3,A3,D4,A4,,,,,,7x,,,D7,A6,D6,A5,,,,,,
{32}8bx/7bx,6x/1x,5x/2x,4x/3x-5-2-6-4-1[32:45],,,,,{16},,,,8h[8:10],,,,,,,,,,,,,,,,,,,,,,,,
{32}8bx/7bx,6x/1x,5x/2x,4x/3x-1-5-7[8:5],,,,,{16},,,,8h[8:2],,,,,,,,8x,,8xw4[8:1],,,,8bx,,,,6hbx[8:2]/2hbx[8:2],,,,,,
{8}3x/5x,2-4[8:1],1,2x/6x,7-4[8:1],8,3x/7x,2-5[8:1],1,2x/7x,8-4[8:1],1,3x/8x,2-7[8:1],1,2x/6x,5-1[8:1],4,2x/5x,3-8[8:1],4,3x/7x,6-1[8:1],5,6x/3x,4-8[8:1],5,4x/7x,6qq4[32:5],5,{16}6x/2x,,,,
{16}2x,5,2,,2x,6,2,,2x,7,2,,2x,8,2,,
7x,1,7,,7x,2,7,,7x,3,7,,7x,4,7,,
{8}7/5x,7/4x,7/3x,7x/2x,6x/2,5x/2,4x/2,{24}3x,4x,5x,7hx[8:1],,,2x,3x,4x,6hx[8:1],,,1x,2x,3x,4x-1[8:1]/8x-5[8:1],,,,,,,,,,,,
{8}2bx/4bx,3,5,2-5[8:1],6h[8:1],2,6,7-4[8:1],3h[8:1],7,2,1-5[8:1],6h[8:1],1,7,4h[8:1]/8h[8:1],
,75,6,5,42,3,6-4-7[32:7]/4,,3-5-2[32:7],,,,8,17,2h[8:1]/6h[8:1],,
3/5,4,6,2-5[8:1],5h[8:1],2,6,7-3[8:1],3w7[8:1],7,,{16},,,,5b/1b,,6b/2b,,7b/3b,,
8hb[8:2]/4b-2b[8:1],,,,,,,,7b-5b[8:1]/1hb[8:2],,,,,,,,
6hbx[8:1]/2hbx[8:1],,,,2x-6b[8:1]/6x,,2x/6x,,2bx/6bx`Cf,,,,,,,,
{8}7bx/5bx,6,4,7-4[8:1],3h[8:1],7,3,2-5[8:1],6h[8:1],2,7,8-4[8:1],2z6[8:2],8,2,,
{32},,,,8,,,8,,1bx/7bx,,,,,,,{16}2v5[8:1],,6h[8:1],,2,,7,,
84,84,,,3s7[32:14],,6z2[32:10],,,,,,,,,,
,,18,18,2bx/7bx,,{8},53,2-5[8:1],6h[8:1],2,7,8-6-4[32:5],3h[8:1],8,1,1,1,8bx/2hbx[8:2],
{16},,7^4[8:1],,8,,1h[8:2]/7bx,,,,8^5[8:1],,1,,8bx/2h[8:2],,,,1^6[8:1],,2,,1bx/3h[8:2],,,,2>5[8:1],,1,,8h[8:2]/2bx,,,,1>4[8:1],,8,,1bx/7h[8:2],,,,8>3[8:1],,7,,8bx/6h[8:2],,,,7-4b[8:1],,8,,7bx/1bx,,,,3/5,,2bx/6bx,,,,
{16}4x/5x,,3,,3,,5x/7x,,6,,6,,2x/4x,,3,,3,,6x/8x,,7,,7,,1x/3x,,2,,2,,
1x/8x,,6,5,6,,5x/4x,,3,4,3,,2x/5x,,6,5,6,,4x/7x,,2,5,2,,1x/8x,,7,4,7,,
5x/6x,,3,4,3,4,2hx[8:1],,7,8,7,8,6hx[8:1],,3,4,2,4,1hx[8:1],,7,8,6,8,5hx[8:1],,2,4,3,5,4hx[8:1],,
6,5,6,5,6,5,6,5,
7,4,6,5,8,3,7,4,1,2,8,3,
1,2,1,2,1,2,1,2,{32}3bx/8bx,4x/7x,5xw1[114.5#16:1]/6x,,,,,,,,,,,,,,
{4}Cf,,,,,,,,,,,,,,,,
{8}3h[8:6],,,4h[8:3],,,,,
6h[8:6],,,4h[8:3],,,,,
B4,B6,E3,E8,,A1/B1,,A5/B5,
{16}2h[16:3],,,4h[16:3],,,3,,7h[16:3],,,5h[16:3],,,6,,
{8}3x/5x,2-4[8:1],1,2x/6x,7-4[8:1],8,3x/7x,2-5[8:1],1,2x/7x,8-4[8:1],1,3x/8x,2-7[8:1],1,2x/6x,5-1[8:1],4,5x/1x,2-6[8:1],3,2x/1x,8-4[8:1],7,8x/1x,2,3,{16}4,4,1bw5b[8:1],,,,,,,,
{8}8-4[8:1],7,8x/4x,3-7[8:1],2,3x/7x,6-2[8:1],5,6x/2x,1-5[8:1],8,1x/5x,4w8[8:1],,{32}4x,B4,C,B8,,,,,
{16}1x,4,1,,1x,5,1,,1x,6,1,,1x,7,1,,
8x,2,8,,8x,3,8,,8x,4,8,,8x,5,8,,
{8}7/6x,7/5x,7/4x,7x/3x,2x/6x,5x/1x,4x/8x,{24}1x,2x,3x,4x/5x,,,7x,6x,5x,4x/2x,,,1x/5x,2x/6x,3x/7x,4x/8xw4b[8:1],,,,,,,,,,,,
{8}2b-5[8:1]/6b,5,2,1-6-4[32:7],,1/4v7[8:1],,2-6[8:1],,2/5hx[8:2],,7,
{16}8bx-4b[8:1],,,1bx,8,,2bx,,
{8}3-8[8:1],3,4,5-3-7[8:2],,8/5,,2-5[8:1],,12,,8/4,4>1[8:1]/8<5[8:1],,,,
{8}7b-3[8:1]/3b,4,7,8-2-5[32:7],,8/5v2[8:1],,7-3[8:1],,7/4hx[8:2],,2,
{16}1bx-5b[8:1],,,8bx,1,,7bx,,
{8}6-1[8:1],6,3,2-5-1[8:2],,1/2,,6,
{16}6h[8:1],,,7h[8:1]/8h[8:1],,,16,,2hb[8:1]/5hb[8:1],,,4hb[8:1]/7hb[8:1],,,1b/2b,,
{32}1xq6[8:1]*p4[8:1]/2x,8x/3x,7x/4x,6x/5x,{8},,,37,3/7-5-1[32:8],,2-5[8:1],,2,,1,
{16}1hbx[8:1],,3,8hbx[8:1],,2,7hbx[8:1],,
1w5b[8:1],,2,8,1bx`Cf,,,,37,,,,1/5,,2h[8:1]/4h[8:1],,{8},6b/5b,1b/2b,5b/3b,8b/Cf,,,,
{16}1x/7x,,6,5,7,5,8hx[8:1],,2,1,3,1,4hx[8:1],,6,5,7,4,8hx[8:1],,1s5b[32:9],7,2,6,1bx,,,,,,,,
{32}8bx/7bx,6x/1x,5x/2x,4x/3x-5-2-6-4-1[32:45],,,,,{16},,,,8h[8:2],,,,,,,,7h[8:2],,,,,,,,6h[8:2],,,,,,,,
{32}7bx/8bx,6x/1x,5x/2x,4x/3x-1-5-2[32:21],,,,,{16},,,,7h[8:2],,,,,,,,{24}7x,,,E7,B6,B5,E5,,,,,,2x,,,E3,B3,B4,E5,,,,,,
{32}8bx,7x,6hx[8:2],,,,,,1bx,2x,3x-8-4-6-1[32:34],,,,,,{16}7,,,,7,,,,7,,,,7,,,,7,,,,7,,,,
{32}1bx,2x,3hx[8:2],,,,,,8bx,7x,6x-3-5[32:12],,,,,,{16}1,,,,1,,,,1x,,1xw5[8:1],,,,1bx,,,,3hbx[8:2]/7hbx[8:2],,,,,,
{16}A8/A1/A2/D1/D2/E2/B2/B1f/B8/E1/E8/E3/D3/D8,,,,4h[8:1],,6h[8:1],,2h[8:1],,4b-8[8:1]*-7[8:1],,,,,,,,,,{32}2bx,3bx,4bx,5bx,6hx[384:1],5hx[384:1],4hx[384:1],3hx[384:1],2hx[384:1],,,,{16},,7b/Cf,,,,
1,,2/4,,3pp4[32:7],,6,,7pp8[32:7],,,,,,,,,,B6/B2/Cf/A2/A6,,,,73,,{12}4hb[12:1]/6hb[12:1],,2b/8b,2b-5b[8:1]/8b-5b[8:1],2b/8b,,
{16}2b/8b,,,,{12}E8f,E2f,E7f,E3f,E6f,E4f,{8}Chf[8:1],,,6x/2x,6h[8:1]/2h[8:1],,8,8,8,1bx/7hbx[8:2],
{16},,2^3-5[8:1],,1,,8h[8:2]/2bx,,,,1^2-4[8:1],,8,,1bx/7h[8:2],,,,8^1-3[8:1],,7,,8bx/6h[8:2],,,,7-5^4[8:1],,8,,1h[8:2]/7bx,,,,8-6^5[8:1],,1,,8bx/2h[8:2],,,,1-7^6
[8:1],,2,,1bx/3h[8:2],,,,2-5b[8:1],,1,,2x/8bx,,,,6/4,,8bxw4b[8:1]/2bx,,,,
{32}8bx-2-4-6-8[8:30],B8,Cf,B4,,,,,{4},,,,,,,,,,,,,,,
1xs5>5[8:30],,,,,,,,7^8^1^2^3^4b[120#1024:960],,,,,,,
