&title=Bamboo on Bamboo
&artist=Sampling Master MEGA
&first=0
&des=Soxps
&lv_5=14
&lv_6=14+
&inote_5=(200)
{1},
{8}4h[4:1],,5,4h[4:1],,5,3h[4:1],,5,4h[4:1],,5h[8:3],4p3[4:1],,,,5h[4:1],,4,5h[4:1],,4,6h[4:1],,4,5h[4:1],,4h[8:3],5q6[4:1],,,,
{8}4h[4:1],,3,4h[4:1],,5,3h[4:1],,2,4h[4:1],,5h[8:3],4p2[4:1],,,,5h[4:1],,6,5h[4:1],,4,6h[4:1],,7,5h[4:1],,4,5h[4:1],,{16}4,3,2,1,
{16}8b/6b-3[8:1],,6,,8v5[8:1],,8,,6-3[8:1],,6,,8,,8-4[8:1],,,,8,,7<4[8:1],,,,7/8>3[8:1],,,,8,,,,
{16}7h[8:1]/5-8[8:1],,,,3h[8:1]/5,,,,1-4[8:1]/7h[8:1],,,,1/3h[8:1],,,,7h[8:1]/5-8[8:1],,,,3h[8:1]/5,,,,1-4[8:1]/7h[8:1],,,,1/3h[8:1],,,,
{16}8b-5[8:1],,8,,1v6[8:1],,1,,8-5[8:1],,8,,1,,1-4[8:1],,,,1,,7<4[8:1],,,,8>3[8:1]/7,,,,8,,,,
{16}6h[8:1]/4-1[8:1],,,,4/2h[8:1],,,,6h[8:1]/8-5[8:1],,,,8/2h[8:1],,,,
{16}1-5[32:4],,7-3[32:4],,1,,7,,1,,7,,1,2,3,4,
{8}5b-1[8:1]/8b-4[8:1],,,,2-6[8:1],6h[8:1],2,7,7-3[8:1],3h[8:1],7,2,2-6[8:1]/6-2[8:1],,26,,1v4[8:1]/5v8[8:1],,15,,3-6[8:1],7-2[8:1],3,7,3b,,,,,,{16}8,7,6,5,
{8}4b-8[8:1]/1b-5[8:1],,,,7-3[8:1],3h[8:1],7,2,2-6[8:1],6h[8:1],2,7,7-3[8:1]/3-7[8:1],,37,,8v5[8:1]/4v1[8:1],,48,,6-3[8:1],2-7[8:1],6,2,6b,,,,,,
{16}1,2,3,4,5b/7bv4[8:1],,7,,8v5[8:1],,8,,1v6[8:1],,1,,2,,2>5[8:1],,,,2,,1<6[8:1],,,,1/2-6[8:1],,,,2,,,,
{8}8<5[8:1]/4,3,2,1,4-7[8:1]/8,,14,2,3-8[8:1]/8,7,6,5,4<7[8:1],,4/3h[8:1],,
{8}2bv5[8:1],2,1v4[8:1],1,8v3[8:1],8,7,7-2[8:1],,7,5>2[8:1],,6-2[8:1]/5,,6,,
{8}4>1[8:1]/8,7,6,5,8-3[8:1]/4,,58,6,
{16}7-5[32:3],,4-2[32:3],,7-3[8:1],,4-1[8:1],,7,,4,,8,7,6,5,
{8}4b-8[8:1]/2b-8[8:1],,,,7-4[8:1],3[4:1],7,1,5-8[8:1],3,5,1,2-5[8:1]*v7[8:1],,2,,
{8}8-5[8:1]/6-2[8:1],,,,3-8[8:1],4-7[8:1],3<2[4:3],4,3b,,,,,,{16}5,6,7,8,
{8}1b-5[8:1]/3b-5[8:1],,,,7v2[8:1],3,7,5,1-6[8:1],3,1,5,8-2[8:1]*-4[8:1],,8,,
{8}7-1[8:1]/5-1[8:1],,,,2-4[8:1],6-8[8:1],2-6[8:1],6,2b,,,,,,
{16}8,7,6,5,
{8}1,1-3[32:3],,1/5-7[32:3],,51,2,3-1[32:3],,7-5[32:3]/3,,7,3,3,2,2,1,1-3[32:3],,1/5-7[32:3],,51,2,3-1[32:3],,7-5[32:3]/3,,7,3b,,,,
{8}8,8-6[32:3],,8/4-2[32:3],,48,7,6-8[32:3],,2-4[32:3]/6,,2,6,6,7,7,8,8-6[32:3],,8/4-2[32:3],,48,7,6-8[32:3],,2-4[32:3]/6,,2,{12}6,7,8,2,3,4,
{8}7-4[8:1],8-3[8:1],7,8,6,5,7-4[8:1],8-3[8:1],7,8,6,5,7-3[8:1],8-2[8:1],7,8,7-4[8:1],8-3[8:1],7,8,6,5,7-3[8:1],8-2[8:1],7,8,6-1[8:1],5,6b,,,,
{8}3-8[8:1],4-7[8:1],3,4,2,1,3-8[8:1],4-7[8:1],3,4,2,1,3-7[8:1],4-6[8:1],3,4,3-8[8:1],4-7[8:1],3,4,2,1,3-7[8:1],4-6[8:1],3,4,2,1,{12}3,5,1,6,4,8,
{8}2bv8[8:1],8V24[4:1],2,7h[4:1],,,6v1[8:1],1V75[4:1],6,2h[4:1],,,3v1[8:1],1V35[4:1],3,6h[4:1],,,7v4[8:1],4V68[4:1],7,2h[4:1],,,{8}3-8[8:1],8V25[4:1],3,6h[4:1],,,7-4[8:1],4V61[4:1],7,3h[4:1],,,3-8[8:1],8V25[4:1],3,6h[4:1],,,8b,,,{16}6,5,7,,7,,
{8}3b>8[8:1],8V63[4:1],3,7h[4:1],,,5<8[8:1],8V25[4:1],5,1h[4:1],,,4>1[8:1],1V74[4:1],4,7h[4:1],,,6<1[8:1],1V36[4:1],6,3h[4:1],,,{8}2>5[8:1],5V73[4:1],2,7h[4:1],,,8<5[8:1],5V37[4:1],8,3h[4:1],,,4>1[8:1],1V73[4:1],4,7h[4:1],,,5<8[8:1],8V26[4:1],5,2h[4:1],,,
{8}7b/5b,,,8b/2b,,,5b/3b,,,8b/6b,,,2-5[8:1],8-5[8:1],2,8,3,7,2-5[8:1],8-5[8:1],2,8,3,7,{16}4-1[8:1],7,,7,4,,6,,6,,6,,5-8[8:1],2,,2,5,,3,,3,,3,,1,8,1,8,1,8,1,8,{24}1,2,3,4,5,6,7,8,1,2,3,4,{32}5,6,7,8,1,2,3,4,5,6,7,8,1,2,3,4,
{8}5b-1[8:1],,8-6[32:3]/5,7,8/2-4[32:3],3,12,,7-5[32:3]/8,6,7/8-2[32:3],1,78,7,7,7,7b-2[8:1],,7,3,4-1[8:1],,4,8,7-5[32:3],7,1-3[32:3],1,8w4[8:1],,8,,
{8}7b-3[8:1],,4-2[32:3]/7,5,4/6-8[32:3],7,56,,3-1[32:3]/4,2,3/4-6[32:3],5,34,3,3,3,3b-6[8:1],,3,7,8-5[8:1],,8,,
{8}26,26,37,37,48,48,{32}1,2,3,4,5,6,7,8,
{8}1b-5[8:1]/5b-1[8:1],,1v4[8:1]/5v8[8:1]
,,,,37,,2-6[8:1]/6-2[8:1],,2v7[8:1]/6v3[8:1],,,,48,,3-7[8:1]/7-3[8:1],,3v6[8:1]/7v2[8:1],,,,15,,4-8[8:1]/8-4[8:1],,4v7[8:1]/8v3[8:1],,,,26,,
{8}1-4[8:1],1,5-8[8:1],5,2v5[8:1]*v7[8:1],,2,,8-5[8:1],8,4-1[8:1],4,6v1[8:1]*v3[8:1],6,6,,4-1[8:1],4,8-5[8:1],8,3v8[8:1]*v6[8:1],,3,,1h[8:1]/5h[8:1],,2h[8:1]/6h[8:1],,3h[8:1]/7h[8:1],,4h[8:1]/8h[8:1],,
{8}1b-6[8:1]/2b,2,1v4[8:1]/2,2,1<6[8:1]/2,,1/3-8[8:1],,4-7[8:1]/3,,34,,,1h[8:2]/6h[8:2],,,
{8}8b-3[8:1]/7b,7,8v5[8:1]/7,7,8>3[8:1]/7,,8/6-1[8:1],,5-2[8:1]/6,,65,,,38,38,38,
{8}2-5[8:1],1-6[8:1],2,1,,3-8[8:1],4-7[8:1],3,4,,2-4[8:1],6-8[8:1],2-5[32:3],6-1[32:3],2,6,
{8}2b,2,2,2,3b/7b,37,37,37,6b/4b,46,3b/5b,35,2b/4b,24,1b-5[8:1]/3b-7[8:1],13,1bpp6[4:14]/3bqq6[4:14],,,,,,,,,,,,,,,,,,,,,,,,,,,,,,E
&inote_6=(200)
{1},
{8}1,1h[8:2],4,4h[4:2],,1,2,1h[4:2],
{8},4,3,4h[4:2],,1,2,1h[8:2],
{8}5,5h[4:1],8,8h[8:4],,5,6,5h[4:2],
{8},8,7,8h[4:2],,5,6,5h[4:2],
{8}1,2,3,4h[4:2],,1,2,1h[4:2],
{8},4,3,4h[4:2],,1,2,1h[4:1],
{8}5,5h[8:2],8,8h[4:2],,5,6,5h[4:2],
{8},8,7,8h[4:1],5,5,{16}4,7,4,7,
{16}3b-1[8:1]/6b-4[8:1],,,,,,,,8h[8:3],,7,,6,,5-8[8:1],,
{16},,58,,1v7[8:1]*-5[8:1],,,,1,,,,36,,,,
{8}4>7[8:2]/7,,7,6,5v8[8:1]*-1[8:1],,5,,
{8}3/6<3[8:2],3,3,4,5-1[8:1]*v2[8:1],,5,,
{8}6b-8[8:1]/3b-5[8:1],,,,1h[8:3],2,3,4-1[8:1],
{8},14,8-4[8:1]*v2[8:1],,8,,36,,
{8}2/5<2[4:1],,2,3,4-8[8:1]*v7[8:1],,4,,
{8}2-5[8:1],1-6[8:1],2,1,{16}2,,1,,2,1,2,8,
{16}1b,,,,47,,6,,25,,3,,47,,6,6,
{16}5h[8:1],,7,,18,,2,,35,,6,6,4,,3,3,
{16}5h[8:1],,2,,14,,5,,68,,2,1,3-6[8:1],,2,4,
{16}3bq6[32:13]*q5[32:13],,,,,,,,,,,,7,8,7,1,
{16}8b,,,,25,,3,,47,,6,,15,,3,3,
{16}4h[8:1],,2,,18,,7,,46,,3,3,5,,6,6,
{16}4h[8:1],,7,,58,,4,,13,,7,8,6-3[8:1],,7,5,
{16}6bp4[32:12]*pp3[32:12],,,,,,,,,,,,2,5,2,5,
{8}3b-5[8:1]/6b-8[8:1],,3/6-2[8:1],,16,8,7,6-2[8:1],
{8},26,1-4[8:1]*-6[8:1],,1,,37,,
{8}2/5<2[4:1],,2-6[8:1],3,4v1[8:1]*-8[8:1],,4,,
{8}4>7[4:1]/7,7,7-3[8:1],6,5-1[8:1]*v8[8:1],,5,,
{8}3b-1[8:1]/6b-4[8:1],,3-7[8:1]/6,,38,1,2,3-7[8:1],
{8},37,8-3[8:1]*v5[8:1],,8,,26,,
{8}4>7[4:1]/7,,7-3[8:1],6,5v8[8:1]*-1[8:1],,5,,
{8}2-5[8:1],7-4[8:1],2,7,3,6,{16}1,8,1,8,
{16}2b/7b,,,,34,,2,,17,,6,,25,,3,3,
{16}4h[8:1],,6,,78,,1,,24,,6,6,5,,3,3,
{16}4h[8:1],,2,,15,,6,,47,,2,1,3-7[8:1],,2,4,
{16}3bV15[8:3]*V17[8:3],,,,,,,,,,,,6,4,6,4,
{16}7b,,,,56,,7,,21,,3,,47,,6,6,
{16}5h[8:1],,7,,28,,3,,25,,3,3,4,,6,6,5h[8:1],,7,,48,,3,,25
,,6,5,7-3[8:1],,6,8,
{16}7bV15[8:3]*V13[8:3],,,,,,,,,,,,4,6,4,6,
{8}3b/7b,,3h[8:1]/7,6,1h[4:1]/5,,3h[8:1],,2h[8:1]/4h[8:1],,3h[8:1]/5h[8:1],,4h[4:1]/6,7,8,1,1/5,,1h[8:1]/5,4,3/7h[4:1],,5h[8:1],,6h[8:1]/4h[8:1],,3h[8:1]/5-3[8:1],,5b/1,,,,
{8}6/2,,6h[8:1]/2,3,8h[4:1]/4,,6h[8:1],,7h[8:1]/5h[8:1],,6h[8:1]/4h[8:1],,5h[4:1]/3,2,1,8,8/4,,8h[8:1]/4,5,6/2h[4:1],,4h[8:1],,3h[8:1]/5h[8:1],,6h[8:1]/4V62[16:5],,4b/8,,,,
{8}1h[8:1]/7h[8:1],,1-5[8:1]/7,2,3,,1h[8:1]/7h[8:1],,1-5[8:1]/7,2,3,,4-2[8:1],1-5[8:1],4,1,8h[8:1],,6/8-4[8:1],1,2,,6h[8:1]/8h[8:1],,6/8-4[8:1],1,2-7[8:1]*v5[8:1],,2,,46,,
{8}8h[8:1]/2h[8:1],,8-4[8:1]/2,7,68,,8h[8:1]/2h[8:1],,8-4[8:1]/2,7,68,,5-7[8:1],8-4[8:1],5,8,1b-5[8:1],,1,2b-6[8:1],,2,8b-4[8:1],,8,5b-1[8:1],,5,{12}8,7,6,2,3,4,
{8}1/5V31[16:5],,58,7h[8:2],,,4/8V24[16:5],,85,6h[4:1],,,1V75[16:5]/5,,14,3h[8:2],,,4V68[16:5]/8,,41,2h[4:1],,,1/5V37[16:5],,57,6h[4:1],,,4V62[16:5]/8,,42,3h[4:1],,,1V73[16:5]/5,,13,2h[4:1],,,4b/8b,,,{16}2,5,3,,3,,
{8}6V41[4:1],3V15[4:1],6,3,,,7V52[4:1],4V26[4:1],7,4,,,8V25[4:1],3V51[4:1],8,3,,,7V14[4:1],2V48[4:1],7,2,,,3V14[4:1],6V48[4:1],3,6,,,2V83[4:1],5V37[4:1],2,5,,,1V74[4:1],6V48[4:1],1,6,,,2V85[4:1],7V51[4:1],2,7,,,
{8}3b/5h[4:1],,3,2b/4h[4:1],,2,3b/5h[4:1],,3,2b/4h[4:1],,2,1b,1,1,1,1,1,2b/4,2,2,2,2,2,{16}3b,5,,5,3,,3,,3,,3,,4b,6,,6,4,,4,,4,,4,,5b,6,7,8,1,2,3,4,{24}7b,6,5,4,3,2,1,8,7,6,5,4,{32}1b,2,3,4,5,6,7,8,1,2,3,4,5,6,7,8,
{8}1b-5[8:1],,1,,7-3[8:1],8-2[8:1],7,8,5,6h[4:1],4,5,7-5[8:1],4-8[8:1],7,4,
{8}1,,3/8-4[8:1],7,6-8[32:3]/8-2[32:3],,6,,5,8,4-8[8:1]/7,3,4-1[8:1]/2-5[8:1],,,,
{8}8-4[8:1],4,8,3,2-6[8:1],1-7[8:1],2,1,4,3h[4:1],5,4,2-4[8:1],5-1[8:1],2,5,8,,1-5[8:1]/6,2,1-7[32:3]/3-1[32:3],,3,,4,4,15,15,2,2,{32}7,6,5,4,3,2,1,8,
{8}3-7[8:1]/7b-3[8:1],,7V15[16:5]/3V51[16:5],,,,,,2-6[8:1]/6b-2[8:1],,2V48[16:5]/6V84[16:5],,,,,,1-5[8:1]/5b-1[8:1],,1V37[16:5]/5V73[16:5],,,,,,4b-8[8:1]/8-4[8:1],,4V62[16:5]/8V26[16:5],,,,,,
{8}1-3[8:1],8,1/4-8[8:1],5,1-3[8:1]/4-2[8:1],,,,5-7[8:1],4,8-4[8:1]/5,1,8-6[8:1]/5-7[8:1],,,,2-4[8:1],1,5-1[8:1]/2,6,2-4[8:1]/5-7[8:1],,,,8h[8:1]/5,,7h[8:1]/4,,6h[8:1]/3,,5h[8:1]/2,,
{8}1b/4,1,5/2-8[8:1],5,2-4[8:1]/6,,2-8[8:1]/6-8[8:1],,2-4[8:1]/6-4[8:1],,26,,,3h[4:1]/7h[4:1],,,8b/5,8,4/7-1[8:1],4,7-5[8:1]/3,,7-1[8:1]/3-1[8:1],,7-5[8:1]/3-5[8:1],,73,,,26,26,15,2b/6b,7,58,4,3-8[8:1]/6,2,3/4-7[8:1],5,24,,1-5[8:1],8-4[8:1],1,8,2,2,3b/4,35,36,37,4b/5,46,47,48,5b/1,4b/8,3b/7,2b/6,{32}1b,2,3,4,5,6,7,8,6b/1,5,4,3,2,1,8,7,{4}6bV83[4:14]/2bV47[4:14],,,,,,,,,,,,,,,{16},E
