&title=HERA
&artist=ルゼ
&first=0
&des=Y∅RU
&wholebpm=185
&demo_seek=64.2
&demo_len=11.85
&lv_6=14+
&inote_6=(185.0)
{4},,,,4h[8:1]/5h[8:1],,4h[5:1]/5h[5:1],4h[8:1]/5h[8:1],
{16}3b/6b,,4,5,3,,5h,3,4,3,5,4,6h[16:4],,5,,4,,
5,4,6,,4h,6,5,6,4,5,3h[16:4],,5,,6,,
3,4,2,,4h,2,3,2,4,3,5h[16:4],,4,,2,,
8,1,7,,1h,7,8,7,1,8,2h[16:2],,,,
5b,4,6,5,6,4,5,3,7,5,7,3,5h[16:2],,,,
3,4,2,3,2,4,3,5,1,3,1,5,3h[16:2],,,,
8,1,7,8,7,1,8,2,6,8,6,2,8h[16:2],,,,
{4}1b>4[8:1]*-4[8:1],1b<6[8:1]*-6[8:1],1bw5[8:1]*-5[8:1],1b,
4>2[8:1]/6<8[8:1],4/6,{8}8-4[8:1],2-6[8:1],,,
5-3[8:1],3v8[8:1],,,2-6[8:1],7-2[8:1],,,
5-1[4:1],,1V73[4:1],,,,,
2>4[8:1]/8<6[8:1],4v1[8:1]/6v1[8:1],,,
,7h[16:2]/8h[16:2],{16},16,2b/5b,,,,
{4}3-8[8:1]/4-7[8:1],3/4,{8}8-4[8:1],7-1[16:1],,,
5-1[8:1],1-6[8:1],,,
7-2[8:1],5-2[8:1],,,
1-5[4:1],,5V31[4:1]*V71[4:1],,,,,37,3b>8[8:1]/7bv4[8:1],,3b/7b,,
{16}48,15,26,37,{24}48,5,6,7,8,1,{16}2b/6b,,
4h[8:1],,5h[8:1],,6h[8:1],,7h[8:1],,1,8,2,1,3,,
8,7,6h[8:1],,3,,7,6,5h[8:1],,4,,3,4,3,4,
3h[8:1],,2h[8:1],,1h[8:1],,8h[8:1],,7h[8:1],,8,7,6h[8:1],,
{8}1<6[8:1],6v3[8:1],1,,5<7[8:1],1,{16}51,2,3b,,,,
{8}4,4h[4:1],8,8h[4:1],5,5h[4:1],7,7h[8:1],4v6[8:1],6v8[8:1],,,7v1[8:1],1v3[8:1],,,
8b-2[16:1]*-3[16:1],,8b-6[16:1]*-5[16:1],,{12}8b,,
34,35,36,37,8b<5[8:1]/3b>8[8:1],,,3b/8b,,,6b-3[16:1]/7b-2[16:1],,,6b/7b,,,
{1}3<2[4:14]/2h[8:14],,3h[8:14],,
4>5[4:14]/5h[8:14],,4h[8:7],{4}3,2,1,8,
{16}7b-3[8:13],,3,,,,3,,,,3,,,,2,,1,,1,,1,,1,1q5[6:1],,,,,,,,,
4-8[8:13],,5,,,,5,,,,6,,,,6,,7h[16:4],,,,,,6,,7<5[8:1],,6,,7,,,,
6s2[8:13],,1,,,,1,,,,2,,,,2,,3,,3,,4,,4,4>2[6:1],,,,,,,,,
1z5[8:13],,3,,,,4,,,,5,,,,5,,6h[16:4],,,,,,8,,8>6[8:2],,8,,8b,,,,
{16},,2-5[247.75#8:1],,,8-4[247.75#8:1],,,1-5[247.75#8:1],,,7-4[247.75#8:1],,,
3-8[247.75#8:1],,,5-2[247.75#8:1],,,1-6[247.75#8:1],,,4-7[247.75#8:1],,,
5-1[247.75#8:1],,,8-5[247.75#8:1],,8b,,,
2>4[247.75#8:1],,,2/6<8[247.75#8:1],,,6/5-2[247.75#8:1],,,5/1-7[247.75#8:1],,,
1/3>1[247.75#8:1],,,3/8v3[247.75#8:1],,,8/2v7[247.75#8:1],,,2/5<8[247.75#8:1],,,
5/1v4[247.75#8:1],,,1,7b-5[247.75#8:1],,,
7b/2b-4[247.75#8:1],,,2b/6b-1[247.75#8:1],,,6b/5b-2[247.75#8:1],,,
5b/8b-5[247.75#8:1],,,8b/1bv4[247.75#8:1],,,1b/4b<7[247.75#8:1],,,5b/8b>3[247.75#8:1],,,1b,,5bw1[8:1],,,,5b,,,,
2,1,3,8,4,7,5,6,
{24}4b,5,6,7,8,1,{32}2/6b,5,4,3,2,1,8,7,{8}6h[8:4]/2h[8:2],,,,{4}2b,,
7p5[4:2],,,,2qq4[4:2],,,,8b<5[4:1],8,1b>4[4:1],1,8b<1[4:2],,,,
4V28[4:2],,,,5V71[4:2],,,,
{16}3b>7[4:1],,,,7,6,5,4,3b<7[4:1],,,,7,8,1,2,3h[16:3],,,1h[16:3],,,7h[16:3],,,5h[16:5],,,4h[8:1],,,,,,,,
{16}8,1,7,8,8h,1,7,8,6,1,5,2,4,3,5,4,4h,,5,6,4,5,5h,,4,4h,4,4h,4b,,,,
{16}1,8,2,1,1h,8,2,1,3,8,4,7,5,6,4,5,5h,,4,3,5,4,4h,,5,5h,5,5h,5b,,,,
{16}4,5,3,4,4h,5,3,4,2,5,1,6,8,7,1,8,8h,,1,2,8,1,1h,,8,8h,8,8h,8b,,,,
{16}1,8,2,1,1h,8,2,1,3,8,4,7,5,6,4,5,5h,6,4,5,5h,6,4,5,5h,5,5h,5,
{8}5bw1[8:1],,,,,5V71[8:1]/1V35[8:1],,5v3[8:1]/1v7[8:1],
{16},,,,,,,26,,37,,15,1-4[8:1]/5-8[8:1],,,,1b/5b,,,,
7,3,7,3,7,3,6,4,5,4,6,3,7,2,8,1,1h,,8,7,1,8,8h,,1,1h,1,1h,1b-4[16:1]*-6[16:1],,,
,,,,3h[16:1]/5h[16:1],,,,4h[16:1]/6h[16:1],,,54,,,27,,,
1,1h,1,,8>3[8:1]*<5[8:1],8h,8,,8,,,,2b/6b,,,,
8,1,7,2,6,3,5,4,6,4,7,3,8b,2,1,2,8b,3,7,3,7b,4,6,4,6b,5,5h,5,
{16}5b,5,5,5,5h,5,5,5,5h,5,5,5,5h,5,5,5,5h,5,5,5,5h,5,5,5,5h,5,5,5,
5h,5,5,5,5h,5,5,5,5h,5,5,5,5h,5,5,5,5h,5,5,5,5h,5,5,5,5p1[8:1]*q1[8:1],5,5,5,5h,,,,3b/7b,,,,
{16}1b,1,1,1,1h,1,1,1,1h,1,1,1,1h,1,1,1,1b,1,1,1,1h,1,1,1,1b,1,1,1,1h,1,1,1,
1b,1,1,1,1b,1,1,1,1b,1,1,1,1b,1,1,1,1b,1,1b,1,1b,1,1b,1,1b,1,1b,1,1bs5[8:4],1,1b,1,
{12}1,,,,,,4-8[8:1],,,,,,
{8}71,82,63,81,5s1[8:1]/4z8[8:1],,5b/4b,,
7p5[4:3]/2h[4:1],,,,1h[16:3],,,8,8>3[16:3],,
{16}4,5,6,7,4,5,6,7,8,1,2,3,
{8}4qq8[4:3]/7h[4:1],,,,6h[16:3],,,5,5<8[16:3],,
{16}1,2,3,4,1,2,3,4,5,6,7,8,
{8}1p6[4:3]/4h[4:1],,,,3h[16:3],,,2,2>5[16:3],,
{16}6,7,8,1,6,7,8,1,2,3,4,5,
{8}6qq3[4:3]/1h[4:1],,,,8h[16:3],,,7s3[16:4],,,,,{16},2h[16:3]/3h[16:3],,,,,7h/6h,,
{16}8/1h[4:1],,,,2h[4:1],,,,3h[16:3],,,4h[16:3],,,3,,
{16}1/8h[16:3],,,7h[16:3],,,6h[16:3],,,5h[16:3],,,6h[16:2],,5,,
{8}54,3,54,6,53,1,64,8,7h[16:3]/6h[16:3],,2h[16:3]/3h[16:3],,1-3[16:1]/8-6[16:1],,1b/8b,,
{16}4/5h[4:1],,,,6h[4:1],,,,7h[16:3],,,8h[16:3],,,7,,
{16}5/4h[16:3],,,3h[16:3],,,2h[16:3],,,1h[16:3],,,2h[16:2],,1,,
{16}7h[8:1]/8h[8:1],,,4h[8:1]/5h[8:1],,,12,,,,36,,5h[16:1]/4h[16:1],,,,
{16}4h[8:1]/3h[8:1],,,1h[8:1]/8h[8:1],,,65,,,,58,,67,6-3[49.5#32:1]/7v2[49.5#32:1],,,
{1},
{16}1/5b,2,3,4,5/1b,6,7,8,1h/5b,4,3,2,1/5b,8,7,6,5h/1b,8,7,6,5h/1b,4,3,2,1h/5b,6,7,8,
{4}1-6[16:1]/5-2[16:1],1b/5b,1b-4[16:1]/5b-8[16:1],5b/1b,
{16}2b/4b,,7b/5b,,
{8}2b/7b,4b/5b,1b/3b,4b/5b,6b-3[16:1]/8b-3[16:1],,,,
{12}3b,3b,3b,3b,3b,3b,3bw7[8:1],
E
